Bleach

Bleach (Ep 195) Eng Subs Xvid {1337x} Noir

  • Download 5x Faster
  • Download torrent
  • Direct Download
  • Rate this torrent +  |  -
Bleach (Ep 195) Eng Subs Xvid {1337x} Noir

Free and Direct Download with Usenet.nl 300GB+ free


Torrent info

Name:Bleach (Ep 195) Eng Subs Xvid {1337x} Noir

Total Size: 200.21 MB

Magnet: Magnet Link

Seeds: 0

Leechers: 1

Stream: Watch Online @ Movie4u

Last Updated: 2010-12-03 20:53:54 (Update Now)

Torrent added: 2008-11-19 04:33:02





Torrent Files List


1337x.Org.txt (Size: 200.21 MB) (Files: 3)

 1337x.Org.txt

0.03 KB

 Bleach (Ep 195) [Eng Subs] [Xvid] {1337x}-Noir.avi

200.20 MB

 Noir.nfo

5.40 KB
 

Announce URL: http://genesis.1337x.org:1337/announce

Torrent description

Bleach (Ep 195) Eng Subs Xvid {1337x} Noir preview 0

Bleach (Ep 195) Eng Subs Xvid {1337x} Noir preview 1

Bleach (Ep 195) Eng Subs Xvid {1337x} Noir preview 2
[code]


??????
??????? ????
???????? ??????
????????? ???????????
??????? ???????????? ?????????????
????????? ???????????????????????????
?????????? ???????????????????????????
??????????? ?????????????????????????????
?????????????????????????????????????????
?????????????????????????????????????????
?????????????????????????????????????????
?????????????????????????????????????????
?????????????????????????????????????????
???????? ?????????????????????????????????
????????? ????????????????????????????
????????? ????????????????? ????????
????????? ???????????????? ????????
????????? ?????????????? ????????
????????? ?????




**************
* Bleach 195 *
**************

________________________
General Information |
________________________|
_______________________________________________________________
Type : Anime
Format : AVI
Format/Info : Audio Video Interleave
File size : 200Mb
Duration : 23mn 16s
Language : Japanese
Subtitles : English (Hardcoded)- [By dattebayo]
Genre : Action | Adventure | Fantasy | Thriller
IMDB Link : http://www.imdb.com/title/tt0434665/
Rating : 8.9/10
_______________________________________________________________
________________________________________________________________
Video
Format : MPEG-4 Visual
Codec ID/Hint : XviD
Bit rate : 1 078 Kbps
Width : 624 pixels
Height : 352 pixels
Display aspect ratio : 16/9
Frame rate : 23.976 fps
Bits/(Pixel*Frame) : 0.205
Stream size : 179 MiB (90%)
_______________________________________________________________
Audio
Format : MPEG Audio
Codec ID/Hint : MP3
Bit rate mode : Variable
Bit rate : 112 Kbps
Channel(s) : 2 channels
Sampling rate : 48.0 KHz
Stream size : 18.6 MiB (9%)
Writing library : LAME3.82
_______________________________________________________________
________________
Description
________________
_______________________________________________________________
High school student Kurosaki Ichigo is unlike any ordinary kid.
Why? Because he can see ghosts. Ever since a young age, he's
been able to see spirits from the afterlife. Ichigo's life
completely changes one day when he and his two sisters are
attacked by an evil, hungry and tormented spirit known as a
Hollow. Right in the nick of time, Ichigo and his siblings
are aided by a Shinigami (Death God) named Kuchiki Rukia,
whose responsibility it is to send good spirits (Pluses) to
the afterlife known as Soul Society, and to purify Hollows
and send them up to Soul Society. But during the fight against
the Hollow, Rukia is injured and must transfer her powers to
Ichigo. With this newly acquired power, so begins Kurosaki
Ichigo's training and duty as a Shinigami to maintain the
balance between the world of the living and the world of
the dead...
_______________________________________________________________

___________________
INFORMATION
___________________
_______________________________________________________________
Im doing this for the handfull of people who can't for whatever
Reason it may be play dattebayo's encoding of bleach because
of the H.264/X.264 Codec.Enjoy the Xvid version.
Hueco Mundo arc started again!!! :) I'll be starting
To release Xvid versions of the entire Arc.
_______________________________________________________________

___________________
Notes
___________________
_______________________________________________________________
Be aware People are starting to use my tag to create fake files
Make sure its a real genuine release from me, I have never and
will never do Cams,Telesyncs,Telecine. I have never and will
never do Rar files. Try to check 1337x.org to see if the file
exist. Fuck the fakers and enjoy my release.
_______________________________________________________________
___________________
Post Information
___________________
_________________________________
Posted by............: Noir
Posted on............: 11/19/2008
_________________________________
[/code]

Bleach (Ep 195) Eng Subs Xvid {1337x} Noir preview 3

Bleach (Ep 195) Eng Subs Xvid {1337x} Noir preview 4

related torrents

Torrent name

health leech seeds Size
 

comments (0)

Main Menu