Action

Passenger 57 (1992) Opt MULTISUBS

  • Download 5x Faster
  • Download torrent
  • Direct Download
  • Rate this torrent +  |  -
Passenger 57 (1992) Opt MULTISUBS

Anonymous and Direct Download 300GB+ free


Torrent info

Name:Passenger 57 (1992) Opt MULTISUBS

Total Size: 707.72 MB

Magnet: Magnet Link

Seeds: 0

Leechers: 0

Stream: Watch Online @ Movie4u

Last Updated: 0000-00-00 00:00:00 (Update Now)

Torrent added: 2008-11-18 16:39:37




Torrent Files List


Info about this release.txt (Size: 707.72 MB) (Files: 22)

 Info about this release.txt

4.90 KB

 Optional subtitles

  Czech.rar

561.75 KB

  Dansk.rar

480.91 KB

  Deutsch.rar

520.02 KB

  English.rar

617.20 KB

  Espanol.rar

588.62 KB

  Francais.rar

514.72 KB

  Greek.rar

518.66 KB

  Hebrew.rar

468.64 KB

  Hrvatski.rar

535.84 KB

  Hungarian.rar

502.74 KB

  Islands.rar

589.10 KB

  Italiano.rar

535.80 KB

  Nederlands.rar

548.44 KB

  Norsk.rar

494.17 KB

  Notes on subtitle files and burning of discs.txt

2.20 KB

  Polski.rar

535.75 KB

  Portugues.rar

515.81 KB

  Suomenkillinen.rar

451.72 KB

  Svenska.rar

431.29 KB

  Turkish.rar

547.10 KB

 Passenger 57 (1992) Wesley Snipes (QualityRip, Opt.MULTISUBS)_Kuth.avi

697.99 MB
 

Announce URL:

Torrent description

Passenger 57 (1992)


Optional subtitles in separate idx/sub files:
Croatian (Hrvatski), Czech, Danish, Dutch, English, Finnish, French, German, Greek, Hebrew, Hungarian, Icelandic, Italian, Norwegian, Polish, Portuguese, Spanish, Swedish, Turkish.

One of my all-time favourite action films, partly because of the plane which I thought was a DC-10 until I discovered that it is the almost identical Lockhead Tristar.
(For planespotters: The huge DC-10 had the third engine mounted straight through the tail fin. The Tristar had only the inlet opening to the engine in front of the fin.)

Widescreen DVDrip XviD 2-pass 720x288, really great stereo sound AC3.
Burn tested, runs well in both my standalone DivX players.

(This is an improved rip of my own upload from May 2008, which had a resolution of only 608x256p and no subtitles.)


Format/Info : Audio Video Interleave
File size : 698 MiB
Duration : 1h 20mn
Overal bit rate : 1215 Kbps

Video
Format : MPEG-4 Visual
Format profile : Streaming [email protected]
Format settings, BVOP : Yes
Format settings, QPel : No
Format settings, GMC : No warppoints
Format settings, Matrix : Default
Muxing mode : Packet Bitstream
Codec ID : XVID
Codec ID/Hint : XviD
Duration : 1h 20mn
Bit rate : 1077 Kbps
Width : 720 pixels
Height : 288 pixels
Display aspect ratio : 2.500
Frame rate : 25.000 fps
Resolution : 8 bits
Colorimetry : 4:2:0
Scan type : Progressive
Bits/(Pixel*Frame) : 0.208
Stream size : 619 MiB
Writing library : XviD 1.2.0.dev47 (UTC 2006-11-01)

Audio
Format : MPEG Audio
Format version : Version 1
Format profile : Layer 3
Codec ID : 55
Codec ID/Hint : MP3
Duration : 1h 20mn
Bit rate mode : Constant
Bit rate : 128 Kbps
Minimum bit rate : 128 Kbps
Channel(s) : 2 channels
Sampling rate : 48.0 KHz
Resolution : 16 bits
Stream size : 73.5 MiB
Writing library : LAME3.97
Encoding settings : CBR

Source: PAL native (note that PAL/NTSC will give no problems for avi files).

Thanks to Kuthumi!

related torrents

Torrent name

health leech seeds Size
 


comments (0)

Main Menu