Comedy

Jalla! Jalla! avi

  • Download 5x Faster
  • Download torrent
  • Direct Download
  • Rate this torrent +  |  -
Jalla! Jalla! avi

Anonymous and Free Direct Download


Torrent info

Name:Jalla! Jalla! avi

Total Size: 665.33 MB

Magnet: Magnet Link

Seeds: 6

Leechers: 1

Stream: Watch Online @ Movie4u

Last Updated: 2015-12-24 22:33:00 (Update Now)

Torrent added: 2008-11-18 11:45:43



VPN For Torrents

Torrent Files List


Jalla! Jalla!.avi (Size: 665.33 MB) (Files: 1)

 Jalla! Jalla!.avi

665.33 MB
 

tracker

leech seeds
 

Torrent description

Jalla! Jalla!,[Divx - Ita Mp3][www.tntvillage.scambioetico.org]

Scheda del film

Titolo:Jalla! Jalla!
Titolo originale:Jalla! Jalla!
Nazionalità:Arabia/Svezia
Anno:2000
Genere:Commedia
Regia:Josef Fares
Produzione:Film i Väst, Memfis Film & Television, TV1000 AB, The Dramatic Institute
Distribuzione:Lucky Red
Data di uscita:31 Ottobre 2001

Cast


Fares Fares, Torkel Petersson, Tuva Novotny.



Scheda tecnica del DivX (Mediainfo)

General
Complete name : Videos\\Jalla! Jalla!.avi
Format : AVI
Format/Info : Audio Video Interleave
File size : 665 MiB
Duration : 1h 29mn
Overall bit rate : 1 043 Kbps
Writing library : VirtualDub build 13870/release

Video
Format : MPEG-4 Visual
Format settings, BVOP : Yes
Format settings, QPel : No
Format settings, GMC : 2 warppoints
Format settings, Matrix : Default
Codec ID : DX50
Codec ID/Hint : DivX 5
Duration : 1h 29mn
Bit rate : 942 Kbps
Width : 512 pixels
Height : 288 pixels
Display aspect ratio : 16/9
Frame rate : 25.000 fps
Resolution : 24 bits
Scan type : Progressive
Bits/(Pixel*Frame) : 0.255
Stream size : 601 MiB (90%)
Writing library : DivX 5.0.1 (UTC 2002-04-09)

Audio
Format : MPEG Audio
Format version : Version 1
Format profile : Layer 3
Codec ID : 55
Codec ID/Hint : MP3
Duration : 1h 29mn
Bit rate mode : Constant
Bit rate : 96.0 Kbps
Channel(s) : 2 channels
Sampling rate : 48.0 KHz
Resolution : 16 bits
Stream size : 61.3 MiB (9%)
Alignment : Split accross interleaves
Interleave, duration : 9988 ms (249.69 video frames)
Interleave, preload duration : 9953 ms

related torrents

Torrent name

health leech seeds Size

Jalla Jalla Film

0 2 694.00 MB 0
 


comments (0)

Main Menu