Hip Hop

UP IN SMOKE TOUR

  • Download 5x Faster
  • Download torrent
  • Direct Download
  • Rate this torrent +  |  -
UP IN SMOKE TOUR

Free and Direct Download with Usenet 300GB+ free


Torrent info

Name:UP IN SMOKE TOUR

Total Size: 1.37 GB

Magnet: Magnet Link

Seeds: 2

Leechers: 1

Stream: Watch Online @ Movie4u

Last Updated: 2010-11-30 00:37:53 (Update Now)

Torrent added: 2008-11-17 20:35:29




Torrent Files List


UP_IN_SMOKE_TOUR[DVDRIP].GM.avi (Size: 1.37 GB) (Files: 1)

 UP_IN_SMOKE_TOUR[DVDRIP].GM.avi

1.37 GB
 

Announce URL: http://tracker.thepiratebay.org/announce

Torrent description

D:UP_IN_SMOKE_TOUR[DVDRIP].GM.avi
General
Complete name : D:UP_IN_SMOKE_TOUR[DVDRIP].GM.avi
Format : AVI
Format/Info : Audio Video Interleave
File size : 1.37 GiB
Duration : 2h 34mn
Overall bit rate : 1 268 Kbps
IAS1 : English
Video
Format : MPEG-4 Visual
Format settings, BVOP : Yes
Format settings, QPel : No
Format settings, GMC : No warppoints
Format settings, Matrix : Default
Codec ID : DX50
Codec ID/Hint : DivX 5
Duration : 2h 34mn
Bit rate : 1 133 Kbps
Width : 624 pixels
Height : 352 pixels
Display aspect ratio : 16/9
Frame rate : 23.976 fps
Resolution : 24 bits
Colorimetry : 4:2:0
Scan type : Progressive
Bits/(Pixel*Frame) : 0.215
Stream size : 1.22 GiB (89%)
Writing library : DivX 2816
Audio
Format : MPEG Audio
Format version : Version 1
Format profile : Layer 3
Codec ID : 55
Codec ID/Hint : MP3
Duration : 2h 34mn
Bit rate mode : Constant
Bit rate : 128 Kbps
Minimum bit rate : 128 Kbps
Channel(s) : 2 channels
Sampling rate : 48.0 KHz
Resolution : 16 bits
Stream size : 141 MiB (10%)
Alignment : Aligned on interleaves
Interleave, duration : 83 ms (2.00 video frames)
Interleave, preload duration : 504 ms
Writing library : LAME3.97
Encoding settings : CBR

related torrents

Torrent name

health leech seeds Size

The Up In Smoke Tour PSP

1 1 776.11 MB 0
 

comments (0)

Main Menu