Movies

Landru 1962 Francais De France (www Quebec team Net)

  • Download 5x Faster
  • Download torrent
  • Direct Download
  • Rate this torrent +  |  -
Landru 1962 Francais De France (www Quebec team Net)

Anonymous and Free Direct Download


Torrent info

Name:Landru 1962 Francais De France (www Quebec team Net)

Total Size: 707.41 MB

Magnet: Magnet Link

Seeds: 0

Leechers: 0

Stream: Watch Online @ Movie4u

Last Updated: 2010-11-30 00:35:11 (Update Now)

Torrent added: 2009-09-10 08:40:01



VPN For Torrents

Torrent Files List


 

Announce URL: http://www.quebec-team.net/announce.php

Torrent description

***ATTENTION***



Pour télécharger ce torrent, vous devez posséder un compte sur Quebec-Team ! et ensuite entrez votre passkey manuellement (http://www.quebec-team.net/announce.php?passkeyici) OU re-télécharger le torrent via le site. Merci!



***ATTENTION***



Lien d'origine : http://www.quebec-team.net/torrents/Films--DVD-RIP/torrent/landru-1962-francais-de-france.html



[aligner=centre][taille=56][couleur=mediumblue]LANDRU[/couleur][/taille][/aligner]



[aligner=centre]Landru 1962 Francais De France (www Quebec team Net) preview 0[/aligner]



[aligner=centre]Landru 1962 Francais De France (www Quebec team Net) preview 1[/aligner]



[aligner=centre]Landru 1962 Francais De France (www Quebec team Net) preview 13[/aligner]



[aligner=centre]Origine du film : italien, français[/aligner]

[aligner=centre]Réalisateur : Claude Chabrol[/aligner]

[aligner=centre]Acteurs : Charles Denner, Michèle Morgan, Danielle Darrieux[/aligner]

[aligner=centre]Genre : Drame[/aligner]

[aligner=centre]Durée : 1h 42min[/aligner]

[aligner=centre]Date de sortie : 25 Janvier 1963[/aligner]

[aligner=centre]Année de production : 1962[/aligner]

[aligner=centre]Titre Original : Aucune information ...[/aligner]

[aligner=centre]Distribué par : Lux Film S.p.a.[/aligner]

[aligner=centre]Critiques spectateurs : Landru 1962 Francais De France (www Quebec team Net) preview 12 pour 12 critiques[/aligner]

[aligner=centre]Bande annonce : [/aligner]

[aligner=centre]Aucune bande annonce disponible pour ce film ...[/aligner]



[aligner=centre]Landru 1962 Francais De France (www Quebec team Net) preview 14[/aligner]



[aligner=centre]Henri-Désiré Landru est le premier tueur en série français identifié. Pour subvenir aux besoins de sa femme et de ses quatre enfants, il décide de séduire des femmes seules et riches qu'il élimine après leur avoir fait signer une procuration. Il brûle ensuite leurs corps dans sa cuisinière.[/aligner]



[aligner=centre]Landru 1962 Francais De France (www Quebec team Net) preview 2 Landru 1962 Francais De France (www Quebec team Net) preview 3 Landru 1962 Francais De France (www Quebec team Net) preview 4 Landru 1962 Francais De France (www Quebec team Net) preview 5 Landru 1962 Francais De France (www Quebec team Net) preview 6 Landru 1962 Francais De France (www Quebec team Net) preview 7 Landru 1962 Francais De France (www Quebec team Net) preview 8 Landru 1962 Francais De France (www Quebec team Net) preview 9 Landru 1962 Francais De France (www Quebec team Net) preview 10 [/aligner]



[aligner=centre]Landru 1962 Francais De France (www Quebec team Net) preview 15[/aligner]







[aligner=centre]Qualité : DVDRiP[/aligner]



[aligner=centre]Format : XviD[/aligner]



[aligner=centre]Langue : Français de France[/aligner]



[aligner=centre]Sous-titre : Aucun[/aligner]





[aligner=centre]Nombre de fichiers : 1 Fichiers[/aligner]



[aligner=centre]Taille des fichiers : 701 Mo[/aligner]



[aligner=centre]Taille totale : 701 Mo[/aligner]



[aligner=centre]Landru 1962 Francais De France (www Quebec team Net) preview 16[/aligner]



[aligner=centre][taille=56] VOIR NFO[/taille][/aligner]





[aligner=centre]Landru 1962 Francais De France (www Quebec team Net) preview 11[/aligner]










General

Format : AVI
Format/Info : Audio Video Interleave
File size : 704 MiB
Duration : 1h 54mn
Overall bit rate : 862 Kbps
Writing application : VirtualDubMod 1.5.10.3 Fr | www.virtualdub-fr.org || (build 2550/release)
Writing library : VirtualDubMod build 2550/release

Video
ID : 0
Format : MPEG-4 Visual
Format profile : [email protected]
Format settings, BVOP : Yes
Format settings, QPel : No
Format settings, GMC : No warppoints
Format settings, Matrix : Default (H.263)
Muxing mode : Packed bitstream
Codec ID : XVID
Codec ID/Hint : XviD
Duration : 1h 54mn
Bit rate : 724 Kbps
Width : 688 pixels
Height : 416 pixels
Display aspect ratio : 1.654
Frame rate : 25.000 fps
Resolution : 24 bits
Colorimetry : 4:2:0
Scan type : Progressive
Bits/(Pixel*Frame) : 0.101
Stream size : 591 MiB (84%)
Writing library : XviD 1.2.1 (UTC 2008-12-04)

Audio
ID : 1
Format : MPEG Audio
Format version : Version 1
Format profile : Layer 3
Codec ID : 55
Codec ID/Hint : MP3
Duration : 1h 54mn
Bit rate mode : Constant
Bit rate : 128 Kbps
Channel(s) : 2 channels
Sampling rate : 48.0 KHz
Resolution : 16 bits
Stream size : 105 MiB (15%)
Alignment : Aligned on interleaves
Interleave, duration : 40 ms (1.00 video frame)
Interleave, preload duration : 504 ms
Writing library : LAME3.97
Encoding settings : -m j -V 4 -q 2 -lowpass 17 -b 128