Action

The Specialist (1994) Opt MULTISUBS

  • Download 5x Faster
  • Download torrent
  • Direct Download
  • Rate this torrent +  |  -
The Specialist (1994) Opt MULTISUBS

Free and Direct Download with Usenet.nl 300GB+ free


Torrent info

Name:The Specialist (1994) Opt MULTISUBS

Total Size: 732.54 MB

Magnet: Magnet Link

Seeds: 0

Leechers: 0

Stream: Watch Online @ Movie4u

Last Updated: 0000-00-00 00:00:00 (Update Now)

Torrent added: 2008-11-16 12:36:30





Torrent Files List


AA-Sample (Size: 732.54 MB) (Files: 23)

 AA-Sample

  AA-Sample The Specialist (1994)_Kuth.avi

25.59 MB

 Info about this release.txt

5.00 KB

 Optional subtitles

  Czech.rar

596.63 KB

  Dansk.rar

532.64 KB

  Deutsch.rar

617.85 KB

  English.rar

558.68 KB

  Espanol.rar

548.78 KB

  Francais.rar

481.45 KB

  Greek.rar

565.62 KB

  Hebrew.rar

622.19 KB

  Hrvatski.rar

625.82 KB

  Hungarian.rar

636.95 KB

  Islenska.rar

606.87 KB

  Italiano.rar

524.26 KB

  Nederlands.rar

577.58 KB

  Norsk.rar

529.81 KB

  Notes on subtitle files and burning of discs.txt

2.20 KB

  Polski.rar

617.46 KB

  Portugues.rar

566.54 KB

  Suomiseksi.rar

504.25 KB

  Svenska.rar

572.64 KB

  Turkish.rar

573.70 KB

 The Specialist (1994) Sharon Stone + Stallone (Opt.MULTISUBS)_Kuth.avi

696.34 MB
 

Announce URL:

Torrent description

The Specialist (1994)

Optional subtitles in separate idx/sub files:
Croatian (Hrvatski), Czech, Danish, Dutch, English, Finnish, French, German, Greek, Hebrew, Hungarian, Icelandic, Italian, Norwegian, Polish, Portuguese, Spanish, Swedish, Turkish.

With Sharon Stone, Sylvester Stallone, James Woods, Eric Roberts and Rod Steiger.

It should be forbidden by law to walk like Sharon Stone does in this explosive action film - so sensuously and self-consciously. I like this movie from the top of her career because it has quite a few spectacular explosions, and because the good guys always win with 'Rocky' in the lead.

My new ripping procedure now produces decent quality for such a long film compressed into just 700 MiB. I enclose a sample for ye weak in faith.

Widescreen DVDrip XviD 2-pass 720x384, really great stereo sound AC3.
Burn tested, runs well in both my standalone DivX players.

MediaInfo analysis of this rip:
Format/Info : Audio Video Interleave
File size : 696 MiB
Duration : 1h 45mn
Overal bit rate : 923 Kbps

Video
Format : MPEG-4 Visual
Format profile : Streaming [email protected]
Format settings, BVOP : Yes
Format settings, QPel : No
Format settings, GMC : No warppoints
Format settings, Matrix : Default
Muxing mode : Packet Bitstream
Codec ID : XVID
Codec ID/Hint : XviD
Duration : 1h 45mn
Bit rate : 786 Kbps
Width : 720 pixels
Height : 384 pixels
Display aspect ratio : 1.875
Frame rate : 25.000 fps
Resolution : 8 bits
Colorimetry : 4:2:0
Scan type : Progressive
Bits/(Pixel*Frame) : 0.114
Stream size : 592 MiB
Writing library : XviD 1.2.0.dev47 (UTC 2006-11-01)

Audio
Format : MPEG Audio
Format version : Version 1
Format profile : Layer 3
Codec ID : 55
Codec ID/Hint : MP3
Duration : 1h 45mn
Bit rate mode : Constant
Bit rate : 128 Kbps
Minimum bit rate : 128 Kbps
Channel(s) : 2 channels
Sampling rate : 48.0 KHz
Resolution : 16 bits
Stream size : 96.5 MiB
Writing library : LAME3.97
Encoding settings : CBR

Source: PAL native (note that PAL/NTSC will give no problems for avi files).

Thanks to Kuthumi!

related torrents

Torrent name

health leech seeds Size
 

comments (0)

Main Menu