Action

Max Payne (2008) R5 h 264 Line AC3 2 0 {1337x} Noir

  • Download 5x Faster
  • Download torrent
  • Direct Download
  • Rate this torrent +  |  -
Max Payne (2008) R5 h 264 Line AC3 2 0 {1337x} Noir

Anonymous and Free Direct Download 300GB+


Torrent info

Name:Max Payne (2008) R5 h 264 Line AC3 2 0 {1337x} Noir

Total Size: 699.41 MB

Magnet: Magnet Link

Seeds: 0

Leechers: 0

Stream: Watch Online @ Movie4u

Last Updated: 2011-05-21 13:27:32 (Update Now)

Torrent added: 2008-11-16 08:37:10



VPN For Torrents

Torrent Files List


1337x.Org.txt (Size: 699.41 MB) (Files: 3)

 1337x.Org.txt

0.03 KB

 Max Payne (2008) [R5] [h.264] [Line AC3 2.0] {1337x}-Noir.avi

699.40 MB

 Noir.nfo

5.32 KB
 

Announce URL:

Torrent description

Max Payne (2008) R5 h 264 Line AC3 2 0 {1337x} Noir preview 0

Screenshots

Max Payne (2008) R5 h 264 Line AC3 2 0 {1337x} Noir preview 1

Max Payne (2008) R5 h 264 Line AC3 2 0 {1337x} Noir preview 2

Max Payne (2008) R5 h 264 Line AC3 2 0 {1337x} Noir preview 3
[code]


??????
??????? ????
???????? ??????
????????? ???????????
??????? ???????????? ?????????????
????????? ???????????????????????????
?????????? ???????????????????????????
??????????? ?????????????????????????????
?????????????????????????????????????????
?????????????????????????????????????????
?????????????????????????????????????????
?????????????????????????????????????????
?????????????????????????????????????????
???????? ?????????????????????????????????
????????? ????????????????????????????
????????? ????????????????? ????????
????????? ???????????????? ????????
????????? ?????????????? ????????
????????? ?????




********************
* MAX PAYNE (2008) *
********************

________________________
General Information |
________________________|
_______________________________________________________________
Type : Movie
Format : AVI
Format/Info : Audio Video Interleave
File size : 699Mb
Duration : 1h 35mn
Language : English
Source : Dvd PAL (Russian R5-Dvd9)
Subtitles : None
Genre : Action | Crime | Drama | Thriller
IMDB Link : http://www.imdb.com/title/tt0467197/
Rating : 5.9/10
_______________________________________________________________
________________________________________________________________
Video
Format : AVC
Format/Info : Advanced Video Codec
Codec ID : H264
Bit rate : 565 Kbps
Width : 608 pixels
Height : 256 pixels
Display aspect ratio : 2.35
Frame rate : 25.000 fps
Bits/(Pixel*Frame) : 0.145
Stream size : 386 MiB (55%)
Writing library : x264 core 58 svn-736bm
_______________________________________________________________
Audio
Format : AC-3
Bit rate mode : Constant
Bit rate : 448 Kbps
Channel(s) : 2 channels
Channel positions : L R
Sampling rate : 48.0 KHz
Stream size : 306 MiB (44%)
Interleave, duration : 40 ms (1.00 video frame)
Interleave, preload duration : 500 ms
_______________________________________________________________
________________
Description
________________
_______________________________________________________________
The movie starts with Max Payne (Mark Wahlberg) struggling to
surface in a frosted river while also narrating. The film then
cuts to one week earlier, showing Max working as a clerk in
the cold-case unit and his obsession with finding the fleeing
killer who brutally murdered his wife, Michelle, and newborn
daughter. Max then attends a party run by his snitch, Trevor
Duncan, where he meets Natasha Sax (Olga Kurylenko) and her
sister, Mona (Mila Kunis). Natasha and Max go back to his
place where she demonstrates her desire to have sex and even
offers to act as Max's deceased wife. An upset Max asks
Natasha to leave and while she is walking in a alleyway
and talking to her drug dealer on the phone, she is hunted,
attacked and killed by a mysterious flying entity"
_______________________________________________________________

___________________
Notes
___________________
_______________________________________________________________
Be aware People are starting to use my tag to create fake files
Make sure its a real genuine release from me, I have never and
will never do Cams,Telesyncs,Telecine or RAR files.Try to check
1337x.org to see if the file exist.

Fuck the fakers and enjoy my release.
_______________________________________________________________

___________________
Looking
___________________
_______________________________________________________________
Am looking for anybody who Wants to donate Direct or Line Audio
Pre Released R5's, Screeners, Dvds. Got anything else usefull?
Contact me at [email protected] or [email protected]
_______________________________________________________________
___________________
Post Information
___________________
_________________________________
Posted by............: Noir
Posted on............: 11/15/2008
_________________________________
[/code]

Max Payne (2008) R5 h 264 Line AC3 2 0 {1337x} Noir preview 4

Max Payne (2008) R5 h 264 Line AC3 2 0 {1337x} Noir preview 5

related torrents

Torrent name

health leech seeds Size
 


comments (0)

Main Menu