Movies

300 [2006] 1264x528 Hd Mp4 X264 Aac 5 1 Ch 3li

  • Download 5x Faster
  • Download torrent
  • Direct Download
  • Rate this torrent +  |  -
300 [2006] 1264x528 Hd Mp4 X264 Aac 5 1 Ch 3li

Free and Direct Download with Usenet 300GB+ free


Torrent info

Name:300 [2006] 1264x528 Hd Mp4 X264 Aac 5 1 Ch 3li

Total Size: 1.43 GB

Magnet: Magnet Link

Seeds: 2

Leechers: 1

Stream: Watch Online @ Movie4u

Last Updated: 2011-04-23 23:27:17 (Update Now)

Torrent added: 2009-09-09 16:00:01




Torrent Files List


 

Announce URL: http://tracker.ilibr.org:6969/announce

Torrent description

General

Complete name : 300.mp4

Format : MPEG-4

Format profile : Base Media

Codec ID : isom

File size : 1.42 GiB

Duration : 1h 56mn

Overall bit rate : 1 747 Kbps



Video

ID : 1

Format : AVC

Format/Info : Advanced Video Codec

Format profile : [email protected]

Format settings, CABAC : Yes

Format settings, ReFrames : 3 frames

Codec ID : avc1

Codec ID/Info : Advanced Video Coding

Duration : 1h 56mn

Bit rate mode : Variable

Bit rate : 1 552 Kbps

Nominal bit rate : 1 574 Kbps

Maximum bit rate : 10.3 Mbps

Width : 1 264 pixels

Height : 528 pixels

Display aspect ratio : 2.35:1

Frame rate mode : Constant

Frame rate : 23.976 fps

Resolution : 24 bits

Colorimetry : 4:2:0

Scan type : Progressive

Bits/(Pixel*Frame) : 0.097

Stream size : 1.26 GiB (89%)

Title : 300 By ELi

Writing library : x264 core 68 r1183M f21daff



Audio

ID : 2

Format : AAC

Format/Info : Advanced Audio Codec

Format version : Version 4

Format profile : LC

Format settings, SBR : No

Codec ID : 40

Duration : 1h 56mn

Bit rate mode : Variable

Bit rate : 192 Kbps

Maximum bit rate : 254 Kbps

Channel(s) : 6 channels

Channel positions : Front: L C R, Rear: L R, LFE

Sampling rate : 48.0 KHz

Resolution : 16 bits

Stream size : 159 MiB (11%)

Title : 300

Language : English

related torrents

Torrent name

health leech seeds Size
 

comments (0)