Horror

Exitus 2 House of Pain (2008) DVDrip mnvv2 ws

  • Download 5x Faster
  • Download torrent
  • Direct Download
  • Rate this torrent +  |  -
Exitus 2 House of Pain (2008) DVDrip mnvv2 ws

Anonymous and Free Direct Download 300GB+


Torrent info

Name:Exitus 2 House of Pain (2008) DVDrip mnvv2 ws

Total Size: 700.60 MB

Magnet: Magnet Link

Seeds: 5

Leechers: 0

Stream: Watch Online @ Movie4u

Last Updated: 2010-12-29 22:46:08 (Update Now)

Torrent added: 2008-11-16 00:35:30



VPN For Torrents

Torrent Files List


etm-e2hopx.avi (Size: 700.60 MB) (Files: 3)

 etm-e2hopx.avi

700.58 MB

 Info.txt

3.06 KB

 t-49352-1.jpg

12.76 KB
 

Announce URL: http://mnvv2.ws/announce.php

Torrent description

Exitus.II:.House.of.Pain.(2008).DVDrip
E N J O Y T H E M A S S A C R E




Exitus II: House of Pain (2008)





RELEASE DATE.: 12-NOV-2008
DVD DATE..: 28-OCT-2008
CiNEMA DATE..: STV
RUNTiME: 95
GENRE..: Horror
SiZE: [X] 1CD
[ ] 2CD
[ ] 3CD
RATiNG.: -



ViDEO SOURCE : DVD
BiTRATE.. : 640*272 WS @894Kbits
AUDiO. : VBR MP3




M O V i E i N F O


2 Jahre sind seit den schrecklichen Ereignissen in dem
Exitus-Haus vergangen. Sophie, die Schwester der
getoeteten Monique, leidet darunter, dass man die
Leiche ihrer Schwester nie gefunden hat. Zusammen mit
ihrer Freundin Lena stellt sie eigene Nachforschungen
an und entdeckt in dem ehemaligen Mordhaus ein
schreckliches Geheimnis!


Format : AVI
Format/Info : Audio Video Interleave
Dateigre : 701 MiB
Duration : 1h 34min
Gesamte Bitrate : 1036 Kbps
Verwendetes Programm : VirtualDubMod 1.5.10.2 (build 2542/release)
verwendete Encoder-Bibliothek : VirtualDubMod build 2542/release

Video
Format : MPEG-4 Visual
Format profile : Streaming [email protected]
Format settings, BVOP : Ja
Format settings, QPel : Nein
Format settings, GMC : No warpoints
Format settings, Matrix : Default
Codec ID : XVID
Codec ID/Hint : XviD
Duration : 1h 34min
Bitrate : 895 Kbps
Breite : 640 Pixel
Höhe : 272 Pixel
Bildseitenverhältnis : 2.35
Bildwiederholungsrate : 25.000 FPS
Auflösung : 8 bits
Colorimetry : 4:2:0
Scan type : Progressive
Bits/(Pixel*Frame) : 0.206
Stream size : 605 MiB
verwendete Encoder-Bibliothek : XviD 1.1.0 (UTC 2005-11-22)

Audio
Format : MPEG Audio
Format version : Version 1
Format profile : Layer 3
Codec ID : 55
Codec ID/Hint : MP3
Duration : 1h 34min
Bitraten-Modus : Variable
Bitrate : 128 Kbps
Kanäle : 2 Kanäle
Samplingrate : 48.0 KHz
Auflösung : 16 bits
Stream size : 86.6 MiB
verwendete Encoder-Bibliothek : LAME3.90.
Kodierungseinstellungen : ABR

related torrents

Torrent name

health leech seeds Size
 


comments (0)

Main Menu