Movies

Brooklyn Sonnet [2000] Dvdrip Xvid done Rar

  • Download 5x Faster
  • Download torrent
  • Direct Download
  • Rate this torrent +  |  -
Brooklyn Sonnet [2000] Dvdrip Xvid done Rar

Free and Direct Download with Usenet 300GB+ free


Torrent info

Name:Brooklyn Sonnet [2000] Dvdrip Xvid done Rar

Total Size: 711.06 MB

Magnet: Magnet Link

Seeds: 2

Leechers: 2

Stream: Watch Online @ Movie4u

Last Updated: 2010-05-18 14:48:21 (Update Now)

Torrent added: 2009-09-09 11:40:01




Torrent Files List


 

Announce URL: http://genesis.1337x.org:1337/announce

Torrent description

Brooklyn Sonnet [2000] DVDRip XviD-DoNE





General

Complete name : Brooklyn Sonnet [2000] DVDRip XviD-DoNE
Format : AVI
Format/Info : Audio Video Interleave
File size : 702 MiB
Duration : 1h 35mn
Overall bit rate : 1 029 Kbps
Writing application : VirtualDubMod 1.5.10.1 (build 2366/release)
Writing library : VirtualDubMod build 2366/release

Video
Format : MPEG-4 Visual
Format profile : Simple@L3
Format settings, BVOP : No
Format settings, QPel : No
Format settings, GMC : No warppoints
Format settings, Matrix : Default
Codec ID : XVID
Codec ID/Hint : XviD
Duration : 1h 35mn
Bit rate : 886 Kbps
Width : 448 pixels
Height : 336 pixels
Display aspect ratio : 4/3
Frame rate : 23.976 fps
Resolution : 24 bits
Colorimetry : 4:2:0
Scan type : Progressive
Bits/(Pixel*Frame) : 0.246
Stream size : 604 MiB (86%)
Writing library : XviD 0.0.09 (UTC 2003-03-25)

Audio
Format : MPEG Audio
Format version : Version 1
Format profile : Layer 3
Codec ID : 55
Codec ID/Hint : MP3
Duration : 1h 35mn
Bit rate mode : Variable
Bit rate : 130 Kbps
Nominal bit rate : 128 Kbps
Channel(s) : 2 channels
Sampling rate : 48.0 KHz
Resolution : 16 bits
Stream size : 88.7 MiB (13%)
Alignment : Aligned on interleaves
Interleave, duration : 24 ms (0.58 video frame)
Interleave, preload duration : 496 ms
Writing library : LAME3.90.
Encoding settings : ABR







James Stanek ... Jimmy O'Conner
Kerry Butler ... Anna Callahan
Philip Bosco ... Uncle Chicky
Joseph Lyle Taylor ... Nunzio
Patrick Newall ... Tommy DeVito
Erik Jensen ... Frankie the Snake
Michael Mastro ... Moosehead
Olympia Dukakis ... Helen Manners
Tim Artz ... Bobby Crypt
Tommy Helbig ... Bruno
Steve Scionti ... Detective Mancuso
Mike Hodge ... Detective McCarthy
Michael Goldfinger ... Rather Vincent
Angelica Torn ... Gina
Robert Hogan ... John O'Hagen





Toil and trouble. Jimmy, an aspiring actor, wants out of South Brooklyn where hoods run the show. Since the death of his firefighter father, Jimmy's family has been the guys at the station house and Tommy, a mobster who owns a gym where Jimmy works. Tommy encourages Jimmy's dreams, and Jimmy gets the part of Banquo in a Joseph Papps production of "Macbeth." He goes to tell Tommy the good news and walks in on a mob hit. Tommy protects him temporarily from Nunzio, a murderous Mamaluc, but soon the cops get word Jimmy knows something. Can Jimmy succeed as an actor, be a stand up guy for Tommy, avoid Nunzio, and get closer to Anna, a woman he falls for at the theater?

related torrents

Torrent name

health leech seeds Size
 

comments (0)