'Allo 'Allo!

Road To Avonlea S04E01 TvRip(Xvid) Robb99 avi

  • Download 5x Faster
  • Download torrent
  • Direct Download
  • Rate this torrent +  |  -
Road To Avonlea S04E01 TvRip(Xvid) Robb99 avi

Anonymous and Direct Download 300GB+ free


Torrent info

Name:Road To Avonlea S04E01 TvRip(Xvid) Robb99 avi

Total Size: 349.98 MB

Magnet: Magnet Link

Seeds: 0

Leechers: 0

Stream: Watch Online @ Movie4u

Last Updated: 2015-10-20 16:33:19 (Update Now)

Torrent added: 2008-11-14 16:48:48




Torrent Files List


Road.To.Avonlea.S04E01.[TvRip(Xvid)].Robb99.avi (Size: 349.98 MB) (Files: 1)

 Road.To.Avonlea.S04E01.[TvRip(Xvid)].Robb99.avi

349.98 MB
 

Announce URL:

Torrent description

Road To Avonlea S04E01 TvRip(Xvid) Robb99 avi preview 0


[url]http://www.avonleaguide.com/media/sb/series/eps/e40.htm[/url]

Original CBC Air Date: January 17th 1993
Time Frame: Summer 1906

[quote]Jasper\'s obnoxiously wacky relatives arrive and instantly annoy the King family with their eccentric behavior. A conflict erupts between the Kings and the Dales over the name of the new Dale baby. In the midst of quarreling, Olivia goes into labor.[/quote]


Format : MPEG-4 Visual
Format profile : Streaming [email protected]
Format settings, BVOP : Yes
Format settings, QPel : No
Format settings, GMC : No warppoints
Format settings, Matrix : Default
Muxing mode : Packet Bitstream
Codec ID : XVID
Codec ID/Hint : XviD
Duration : 44mn 45s
Bit rate : 950 Kbps
Width : 640 pixels
Height : 480 pixels
Display aspect ratio : 4/3
Frame rate : 29.970 fps
Resolution : 24 bits
Colorimetry : 4:2:0
Scan type : Progressive
Bits/(Pixel*Frame) : 0.103
Stream size : 304 MiB (87%)
Writing library : XviD 1.0.3 (UTC 2004-12-20)

Format : MPEG Audio
Format version : Version 1
Format profile : Layer 3
Codec ID : 55
Codec ID/Hint : MP3
Duration : 44mn 45s
Bit rate mode : Variable
Bit rate : 129 Kbps
Nominal bit rate : 128 Kbps
Channel(s) : 2 channels
Sampling rate : 48.0 KHz
Resolution : 16 bits
Stream size : 41.3 MiB (12%)
Alignment : Aligned on interleaves
Interleave, duration : 24 ms (0.72 video frame)
Interleave, preload duration : 449 ms
Writing library : LAME3.90.
Encoding settings : ABR

related torrents

Torrent name

health leech seeds Size
 


comments (0)

Main Menu