Action

Max Payne (2008) R5 Xvid {1337x) Noir

  • Download 5x Faster
  • Download torrent
  • Direct Download
  • Rate this torrent +  |  -
Max Payne (2008) R5 Xvid {1337x) Noir

Free and Direct Download with Usenet.nl 300GB+ free


Torrent info

Name:Max Payne (2008) R5 Xvid {1337x) Noir

Total Size: 709.28 MB

Magnet: Magnet Link

Seeds: 0

Leechers: 0

Stream: Watch Online @ Movie4u

Last Updated: 2015-09-11 09:24:49 (Update Now)

Torrent added: 2008-11-14 04:34:47





Torrent Files List


1337x.Org.txt (Size: 709.28 MB) (Files: 4)

 1337x.Org.txt

0.03 KB

 Max Payne (2008) [R5] [Xvid] {1337x)-Noir.avi

706.07 MB

 Noir.nfo

5.21 KB

 Sample

  sample.avi

3.20 MB
 

tracker

leech seeds
 

Torrent description

Max Payne (2008) R5 Xvid {1337x) Noir preview 0

Screenshots

Max Payne (2008) R5 Xvid {1337x) Noir preview 1

Max Payne (2008) R5 Xvid {1337x) Noir preview 2

Max Payne (2008) R5 Xvid {1337x) Noir preview 3
[code] ??????
??????? ????
???????? ??????
????????? ???????????
??????? ???????????? ?????????????
????????? ???????????????????????????
?????????? ???????????????????????????
??????????? ?????????????????????????????
?????????????????????????????????????????
?????????????????????????????????????????
?????????????????????????????????????????
?????????????????????????????????????????
?????????????????????????????????????????
???????? ?????????????????????????????????
????????? ????????????????????????????
????????? ????????????????? ????????
????????? ???????????????? ????????
????????? ?????????????? ????????
????????? ?????




********************
* MAX PAYNE (2008) *
********************

________________________
General Information |
________________________|
_______________________________________________________________
Type : Movie
Format : AVI
Format/Info : Audio Video Interleave
File size : 706Mb
Duration : 1h 35mn
Language : English
Source : Dvd PAL (Russian R5-Dvd9)
Subtitles : None
Genre : Action | Crime | Drama | Thriller
IMDB Link : http://www.imdb.com/title/tt0467197/
Rating : 5.9/10
_______________________________________________________________
________________________________________________________________
Video
Format : MPEG-4 Visual
Codec ID/Hint : XviD
Bit rate : 909 Kbps
Width : 672 pixels
Height : 272 pixels
Display aspect ratio : 2.35
Frame rate : 25.000 fps
Bits/(Pixel*Frame) : 0.199
Stream size : 621 MiB (88%)
_______________________________________________________________
Audio
Format : MPEG Audio
Codec ID/Hint : MP3
Bit rate mode : Variable- (Filtered & Amplified)
Bit rate : 111 Kbps- (Filtered & Amplified)
Channel(s) : 2 channels
Sampling rate : 48.0 KHz
Stream size : 76.0 MiB (11%)
Writing library : LAME3.82
_______________________________________________________________
________________
Description
________________
_______________________________________________________________
The movie starts with Max Payne (Mark Wahlberg) struggling to
surface in a frosted river while also narrating. The film then
cuts to one week earlier, showing Max working as a clerk in
the cold-case unit and his obsession with finding the fleeing
killer who brutally murdered his wife, Michelle, and newborn
daughter. Max then attends a party run by his snitch, Trevor
Duncan, where he meets Natasha Sax (Olga Kurylenko) and her
sister, Mona (Mila Kunis). Natasha and Max go back to his
place where she demonstrates her desire to have sex and even
offers to act as Max's deceased wife. An upset Max asks
Natasha to leave and while she is walking in a alleyway
and talking to her drug dealer on the phone, she is hunted,
attacked and killed by a mysterious flying entity"
_______________________________________________________________

___________________
Notes
___________________
_______________________________________________________________
Be aware People are starting to use my tag to create fake files
Make sure its a real genuine release from me, I have never and
will never do Cams,Telesyncs,Telecine or RAR files.Try to check
1337x.org to see if the file exist.

f*@&% the fakers and enjoy my release.
_______________________________________________________________

___________________
Looking
___________________
_______________________________________________________________
Am looking for anybody who Wants to donate Direct or Line Audio
Pre Released R5's, Screeners, Dvds. Got anything else usefull?
Contact me at [email protected] or [email protected]
_______________________________________________________________
___________________
Post Information
___________________
_________________________________
Posted by............: Noir
Posted on............: 11/12/2008
_________________________________[/code]

Max Payne (2008) R5 Xvid {1337x) Noir preview 4

Max Payne (2008) R5 Xvid {1337x) Noir preview 5

related torrents

Torrent name

health leech seeds Size
 

comments (0)

Main Menu