Action

Death Race Deutsch 2008 Xvid mnvv2 ws

  • Download 5x Faster
  • Download torrent
  • Direct Download
  • Rate this torrent +  |  -
Death Race Deutsch 2008 Xvid mnvv2 ws

Free and Direct Download with Usenet.nl 300GB+ free


Torrent info

Name:Death Race Deutsch 2008 Xvid mnvv2 ws

Total Size: 699.85 MB

Magnet: Magnet Link

Seeds: 10

Leechers: 1

Stream: Watch Online @ Movie4u

Last Updated: 2011-01-08 12:32:34 (Update Now)

Torrent added: 2008-11-12 20:34:04





Torrent Files List


Death Race 3000.avi (Size: 699.85 MB) (Files: 4)

 Death Race 3000.avi

699.73 MB

 hrw-death-fb.jpg

113.00 KB

 info.txt

2.55 KB

 t-49203-1.jpg

13.73 KB
 

Announce URL: http://mnvv2.ws/announce.php

Torrent description

Death.Race.Deutsch.2008.Xvid
Death Race 3000 (2008)


FSK: Freigegeben ab 18 Jahren
RUNTIME: 85 min
STORE: 06.11.2008
CiNESTART: STV
AUDiO: Deutsch 2.0 143kbps VBR
AUDiOXTRA: Deutsch Dolby Digital 5.1
BiTRATE: 950kbit
RESOLUTION: 608x320
ASPECT: 16:9
Subtitles: Deutsch
GENRE: ACTiON


In der nicht mehr allzu fernen Horrorzukunft thront ausgerechnet
auf Amerikas grtem unterirdischen Trinkwasserreservoir Amerikas
grtes Freiluftgefängnis mit Häftlingsselbstverwaltung.
Superpsychopath Reaper droht, das Wasser mit Sarin zu vergiften,
der Regierung bleibt nur geringe Zeit, Gegenmaßnahmen zu ergreifen.
Da Militär und Polizei als Option entfallen, entsendet der Gouverneur
fünf motorisierte und miteinander konkurrierende Outlawteams in einen
Menschenjagdwettbewerb auf den Reaper.

Format : AVI
Format/Info : Audio Video Interleave
Dateigre : 700 MiB
Duration : 1h 27min
Gesamte Bitrate : 1116 Kbps

Video
Format : MPEG-4 Visual
Format profile : Streaming [email protected]
Format settings, BVOP : Ja
Format settings, QPel : Nein
Format settings, GMC : No warpoints
Format settings, Matrix : Default
Codec ID : XVID
Codec ID/Hint : XviD
Duration : 1h 27min
Bitrate : 953 Kbps
Breite : 608 Pixel
Höhe : 320 Pixel
Bildseitenverhältnis : 1.900
Bildwiederholungsrate : 25.000 FPS
Auflösung : 8 bits
Colorimetry : 4:2:0
Scan type : Progressive
Bits/(Pixel*Frame) : 0.196
Stream size : 597 MiB
verwendete Encoder-Bibliothek : XviD 1.0.3 (UTC 2004-12-20)

Audio
Format : MPEG Audio
Format version : Version 1
Format profile : Layer 3
Codec ID : 55
Codec ID/Hint : MP3
Duration : 1h 27min
Bitraten-Modus : Variable
Bitrate : 151 Kbps
Nominal bit rate : 143 Kbps
Kanäle : 2 Kanäle
Samplingrate : 48.0 KHz
Auflösung : 16 bits
Stream size : 94.4 MiB
verwendete Encoder-Bibliothek : LAME3.90.
Kodierungseinstellungen : ABR

related torrents

Torrent name

health leech seeds Size
 

comments (0)

Main Menu