Anime - Other

AVATAR Staffel 3 Komplett 1 21

  • Download 5x Faster
  • Download torrent
  • Direct Download
  • Rate this torrent +  |  -
AVATAR Staffel 3 Komplett 1 21

Anonymous and Direct Download 300GB+ free


Torrent info

Name:AVATAR Staffel 3 Komplett 1 21

Total Size: 4.52 GB

Magnet: Magnet Link

Seeds: 0

Leechers: 0

Stream: Watch Online @ Movie4u

Last Updated: 2012-05-02 12:49:09 (Update Now)

Torrent added: 2009-08-19 00:00:00




Torrent Files List


Avatar - Der Herr Der Elemente - s03e12 - Der Westliche Lufttempel Def.mpg (Size: 4.52 GB) (Files: 23)

 Avatar - Der Herr Der Elemente - s03e12 - Der Westliche Lufttempel Def.mpg

420.35 MB

 Avatar 3 Ger_Komp_XVID.DVDRIP.csv

1.81 KB

 Avatar 3 Ger_Komp_XVID.DVDRIP.nfo

10.26 KB

 Avatar.B03K01 - Erwachen.avi

209.18 MB

 Avatar.B03K02 - Hoch.das.Bein!.avi

209.15 MB

 Avatar.B03K03 - Die.bemalte.Lady.avi

209.14 MB

 Avatar.B03K04 - Sokka.und.sein.Meister.avi

209.06 MB

 Avatar.B03K05 - Am.Strand.avi

209.11 MB

 Avatar.B03K06 - Das.Vermächtnis.avi

209.02 MB

 Avatar.B03K07 - Gauner.und.Fallen.avi

209.05 MB

 Avatar.B03K08 - Drama.um.Hama.avi

209.19 MB

 Avatar.B03K09 - Durch.den.Wind.avi

209.21 MB

 Avatar.B03K10 - Der.Tag.der.schwarzen.Sonne. (1) - Die Invasion.avi

209.01 MB

 Avatar.B03K11 - Der Tag der Schwarzen Sonne (2) - Die Sonnenfinsternis.avi

233.31 MB

 Avatar.S03E13.Sonnenkrieger.und.Feuerdrachen.German.Dubbed.DVDRiP.XviD-eMGi.avi

209.15 MB

 Avatar.S03E14.Der.brodelnde.Fels.Teil.1.German.Dubbed.DVDRiP.XviD-eMGi.avi

209.19 MB

 Avatar.S03E15.Der.brodelnde.Fels.Teil.2.German.Dubbed.DVDRiP.XviD-eMGi.avi

209.09 MB

 Avatar.S03E16.Schatten.der.Vergangenheit.German.Dubbed.DVDRiP.XviD-eMGi.avi

209.32 MB

 Avatar.S03E17.Auf die Bühne, fertig, los!.German.Dubbed.DVDRiP.XviD-eMGi.avi

209.50 MB

 Avatar.S03E18.Zosins.Komet.Teil.1.-.Der.Phönix-König.German.Dubbed.DVDRiP.XviD-eMGi.avi

209.35 MB

 Avatar.S03E19.Zosins.Komet.Teil.2.-.Die.Alten.Meister.German.Dubbed.DVDRiP.XviD-eMGi.avi

209.57 MB

 Avatar.S03E20.Zosins.Komet.Teil.3.-.Von.Angesicht.zu.Angesicht.German.Dubbed.DVDRiP.XviD-eMGi.avi

209.56 MB

 Avatar.S03E21.Zosins.Komet.Teil.4.-.Avatar.Aang.German.Dubbed.DVDRiP.XviD-eMGi.avi

209.64 MB
 

Announce URL:

Torrent description

Im Mittelpunkt von Avatar - Der Herr der Elemente steht der zwölfjährige Aang, der in einer von den
Herren des Feuers beherrschten asiatischen Fantasy-Welt lebt. Aang ist nicht nur der letzte Herrscher
über die Luft, sondern auch der Avatar, der Herr über alle Elemente. Er ist derjenige, der über die Form
von Wasser, Erde, Luft und Feuer bestimmt. Doch der Avatar war 100 Jahre lang in einem Gletscher am
Südpol eingefroren, und während dieser Zeit sind die Herrscher des Feuers ihrem Ziel der totalen
Weltherrschaft immer näher gekommen. Erst als Aang von Katara, der letzten Gebieterin des Wassers, und
deren Bruder Sokka aus dem ewigen Eis befreit wird, hat er eine Chance, seine Mission zu erfüllen: Er
muss die aus den Fugen geratene Welt retten und die Balance der Elemente wiederherstellen.
Eine große Herausforderung für einen Zwölfjährigen - schließlich muss er noch vieles lernen.


Format : AVI
Format/Info : Audio Video Interleave
Dateigre : 209 MiB
Duration : 23min
Gesamte Bitrate : 1 243 Kbps
Film : Avatar - Herr der Elemente / S03E01 - Ewachen
Regisseur : eMGi
Inhalt : Avatar - Herr der Elemente / S03E01 - Ewachen
Verwendetes Programm : Nandub v1.0rc2
verwendete Encoder-Bibliothek : Nandub build 1853/release

Video
Format : MPEG-4 Visual
Format profile : Streaming [email protected]
Format settings, BVOP : Ja
Format settings, QPel : Nein
Format settings, GMC : No warppoints
Format settings, Matrix : Default
Muxing mode : Packet Bitstream
Codec ID : XVID
Codec ID/Hint : XviD
Duration : 23min
Bitrate : 1 041 Kbps
Breite : 640 Pixel
Höhe : 480 Pixel
Bildseitenverhältnis : 4/3
Bildwiederholungsrate : 25,000 FPS
Original frame rate : 23,976 FPS
Auflösung : 24 bits
Colorimetry : 4:2:0
Scan type : Progressive
Bits/(Pixel*Frame) : 0.136
Stream size : 175 MiB (84)
verwendete Encoder-Bibliothek : XviD 1.1.2 (UTC 2006-11-01)

Audio
Format : AC-3
Format/Info : Audio Coding 3
Codec ID : 2000
Duration : 23min
Bitraten-Modus : Constant
Bitrate : 192 Kbps
Kanäle : 2 Kanäle
Channel positions : L R
Samplingrate : 48,0 KHz
Video0 Verzögerung : 517ms
Stream size : 32,3 MiB (15)
Alignment : Split accross interleaves
Interleave, duration : 40 ms (1,00 video frame)
Interleave, preload duration : 500 ms



http://h-n-h.ath.cx

related torrents

Torrent name

health leech seeds Size
 


comments (0)

Main Menu