Adventure

Hancock Absolute best quality! Fastest Seed! (2008) EXCLUSIVE To Mininova!

  • Download 5x Faster
  • Download torrent
  • Direct Download
  • Rate this torrent +  |  -
Hancock Absolute best quality! Fastest Seed! (2008) EXCLUSIVE To Mininova!

Free and Direct Download with Usenet 300GB+ free


Torrent info

Name:Hancock Absolute best quality! Fastest Seed! (2008) EXCLUSIVE To Mininova!

Total Size: 686.96 MB

Magnet: Magnet Link

Seeds: 0

Leechers: 0

Stream: Watch Online @ Movie4u

Last Updated: 2016-02-03 20:37:24 (Update Now)

Torrent added: 2008-07-10 00:34:30




Torrent Files List


Hancock - CAM.XviD-PLUBE.AVI (2008).rar (Size: 686.96 MB) (Files: 2)

 Hancock - CAM.XviD-PLUBE.AVI (2008).rar

686.68 MB

 Password.exe

281.50 KB
 

tracker

leech seeds
 

Torrent description

Alright kids. Hope you are ready for the best Hancock torrent on this website! This torrent will be seeded on my dedicated server with 100MBIT/s line for at least 2 weeks, so DOWNLOAD DOWNLOAD DOWNLOAD!!

I don't know why I'm deciding to host this thing... but don't question it, just enjoy it.

BTW, the movie KICKS ASS!!!

So, go for it, you won't regret it. :D:D:D:D:D:D:D

Lame movie info:


General
Complete name : Hancock - CAM.XviD-PLUBE.AVI (2008).avi
Format : AVI
Format/Info : Audio Video Interleave
File size : 699 MiB
Duration : 1h 25mn
Overal bit rate : 1143 Kbps
Movie name : hc-plube
Writing application : PLUBE
Comment : PLUBE.COM
IAS1 : ???

Video
Format : MPEG-4 Visual
Format profile : Streaming Video@L1
Format settings, BVOP : Yes
Format settings, QPel : No
Format settings, GMC : No warppoints
Format settings, Matrix : Custom
Codec ID : XVID
Codec ID/Hint : XviD
Duration : 1h 25mn
Bit rate : 1018 Kbps
Width : 480 pixels
Height : 336 pixels
Display aspect ratio : 1.429
Frame rate : 29.970 fps
Resolution : 8 bits
Colorimetry : 4:2:0
Scan type : Progressive
Bits/(Pixel*Frame) : 0.211
Stream size : 622 MiB
Writing library : XviD 1.2.0.dev47 (UTC 2006-11-01)

Audio
Format : MPEG Audio
Format version : Version 1
Format profile : Layer 3
Codec ID : 55
Codec ID/Hint : MP3
Duration : 1h 25mn
Bit rate mode : Variable
Bit rate : 111 Kbps
Minimum bit rate : 128 Kbps
Channel(s) : 2 channels
Sampling rate : 48.0 KHz
Resolution : 16 bits
Stream size : 67.9 MiB
Writing library : LAME3.97
Encoding settings : ABR
Language : english

related torrents

Torrent name

health leech seeds Size

Hancock Best Quality Ita

0 0 696.00 MB 0
 

comments (0)

Main Menu