Drama

Garden Party (2008) DvdRip Xvid {1337x} Noir

  • Download 5x Faster
  • Download torrent
  • Direct Download
  • Rate this torrent +  |  -
Garden Party (2008) DvdRip Xvid {1337x} Noir

Anonymous and Direct Download 300GB+ free


Torrent info

Name:Garden Party (2008) DvdRip Xvid {1337x} Noir

Total Size: 702.57 MB

Magnet: Magnet Link

Seeds: 0

Leechers: 1

Stream: Watch Online @ Movie4u

Last Updated: 2017-01-09 19:45:40 (Update Now)

Torrent added: 2008-11-11 10:43:18




Torrent Files List


1337x.Org.txt (Size: 702.57 MB) (Files: 3)

 1337x.Org.txt

0.03 KB

 Garden Party (2008) [DvdRip] [Xvid] {1337x}-Noir.avi

702.56 MB

 Noir.nfo

5.13 KB
 

tracker

leech seeds
 

Torrent description

Garden Party (2008) DvdRip Xvid {1337x} Noir preview 0

Screenshots

Garden Party (2008) DvdRip Xvid {1337x} Noir preview 1

Garden Party (2008) DvdRip Xvid {1337x} Noir preview 2

Garden Party (2008) DvdRip Xvid {1337x} Noir preview 3

Garden Party (2008) DvdRip Xvid {1337x} Noir preview 4
[code]


▓▓▓▓▓▓
▓█████▓ ▓▓▓▓
▓██████▓ ▓▓███▓
▓▓██████▓ ▓████▓▓▓▓▓▓
██████▓ ▓██▒█▓▓███▓▓ ▓▓▓▓▓▓▓▓▓▓▓▓▓
▓██▒████▓ ▓██▒█▓██████▓▓███▓███▓███▓▓
▓██▒▒████▓ ▓██▒███▒▒▒▒██▓████████████▓
▓██▒▒▒▒███▓ ▓██▒██▒▒▒▒▒▒███▒▒▒██▒█▒▒▒██▓▓
▓██▒▒██▒▒██▓▓██▒██▒▒█▒▒▒▒███████▒▒▒▒▒▒██▓
▓██▒▒███▒▒██▓██▒██▒█▓█▒▒▒██▒▒▒██▒▒██▒▒▒█▓
▓██▒▒████▒▒████▒██▒█▓█▒▒▒██▒▒▒██▒▒███▒██▓
▓██▒▒█▓███▒▒███▒██▒▒█▒▒▒▒██▒▒▒██▒▒██████▓
▓██▒▒█▓▓███▒▒██▒██▒▒▒▒▒▒▒██▒▒▒██▒▒██▓███▓
▓▓██▒▒█▓ ▓███▒▒█▒██▒▒▒▒▒▒▒███████▒▒██▓▓▓▓▓
▓▓███▒▒█▓ ▓███▒▒▒███▒▒▒▒▒██▓▓▓▓██▒▒██▓
▓████▒▒█▓ ▓███▒▒█████████▓▓ ▓██▒▒██▓
▓████▒▒█▓ ▓███▒█▓██████▓▓▓ ▓██████▓
▓███████▓ ▓▓████▓▓▓▓▓▓▓▓ ▓▓▓▓▓▓▓▓
▓▓▓▓▓▓▓▓▓ ▓▓▓▓▓




************************
* Garden Party (2008) *
************************

________________________
General Information |
________________________|
_______________________________________________________________
Type : Movie
Format : AVI
Format/Info : Audio Video Interleave
File size : 702Mb
Duration : 1h 28mn
Language : English
Source : Dvd NTSC
Subtitles : None
Genre : Drama
IMDB Link : http://www.imdb.com/title/tt0828393/
Rating : 7.8/10
_______________________________________________________________
________________________________________________________________
Video
Format : MPEG-4 Visual
Codec ID/Hint : XviD
Bit rate : 989 Kbps
Width : 608 pixels
Height : 336 pixels
Display aspect ratio : 16/9
Frame rate : 23.976 fps
Bits/(Pixel*Frame) : 0.202
Stream size : 624 MiB (89%)
_______________________________________________________________
Audio
Format : MPEG Audio
Codec ID/Hint : MP3
Bit rate mode : Variable
Bit rate : 112 Kbps
Channel(s) : 2 channels
Sampling rate : 48.0 KHz
Resolution : 16 bits
Stream size : 70.6 MiB (10%)
Writing library : LAME3.98.2
_______________________________________________________________
________________
Description
________________
_______________________________________________________________
Are you young, sexually confused, just trying to get by? Do
you sing, dance or possess some other talent? Welcome to the
world of GARDEN PARTY. At the center of the story is
15-year-old April (Willa Holland). She is running from
one bad situation into another, hoping to find an answer
that doesn\'t involve taking off her clothes. As April
navigates Los Angeles, she falls in with a group of
confused kids struggling to chase their dreams. The
black widow at the center of this web is a sexy, pot-dealing
realtor named Sally St. Clair (Vinessa Shaw). Anyone who gets
too close falls victim to her kinky entanglements. For some
it goes bad, for other worse, but that\'s just a day in the
life of the Garden Party.
_______________________________________________________________

___________________
Notes
___________________
_______________________________________________________________
Be aware People are starting to use my tag to create fake files
Make sure its a real genuine release from me, I have never and
will never do Cams,Telesyncs,Telecine or RAR files.Try to check
1337x.org to see if the file exist.

Fuck the fakers and enjoy my release.
_______________________________________________________________

___________________
Looking
___________________
_______________________________________________________________
Am looking for anybody who Wants to donate Direct or Line Audio
Pre Released R5\'s, Screeners, Dvds. Got anything else usefull?
Contact me at [email protected] or [email protected]
_______________________________________________________________
___________________
Post Information
___________________
_________________________________
Posted by............: Noir
Posted on............: 11/11/2008
_________________________________
[/code]

Garden Party (2008) DvdRip Xvid {1337x} Noir preview 5

Garden Party (2008) DvdRip Xvid {1337x} Noir preview 6

related torrents

Torrent name

health leech seeds Size
 


comments (0)

Main Menu