Anime - Other

Heat Guy J Vol 4 Ep 13 16 ADBT

  • Download 5x Faster
  • Download torrent
  • Direct Download
  • Rate this torrent +  |  -
Heat Guy J Vol 4 Ep 13 16 ADBT

Free and Direct Download with Usenet.nl 300GB+ free


Torrent info

Name:Heat Guy J Vol 4 Ep 13 16 ADBT

Total Size: 1.33 GB

Magnet: Magnet Link

Seeds: 9

Leechers: 0

Stream: Watch Online @ Movie4u

Last Updated: 2010-08-01 06:38:03 (Update Now)

Torrent added: 2008-11-11 10:06:41





Torrent Files List


Nn 13.divx (Size: 1.33 GB) (Files: 4)

 Nn 13.divx

327.96 MB

 Nn 14.divx

328.28 MB

 Nn 15.divx

379.05 MB

 Nn 16.divx

328.68 MB
 

Announce URL: http://adbt.ath.cx/announce0000000000000000.php

Torrent description

Heat Guy J - Vol. 4 Ep 13-16 DVDRip

Geheime Machenschaften fliegen auf, als der neue Mafia-Chef sein Antlitz der Öffentlichkeit zeigt und die
Stadt in seine Gewalt bringt. Der entthronte Mafiaboss Claire versucht alles, um diesen Putsch zu
zerschlagen. Auch Daisuke und J steht ein großer Kampf bevor: Bruder gegen Bruder und Maschine gegen
Maschine. Ein explosiver Schlagabtausch ist garantiert!

Episoden: 13 Encounter 14 Arrow 15 Angel 16 Target

Vollständiger Name : C:Users3333DesktopHeat Guy J - Vol. 4 Ep 13-16Nn 13.divx
Format : DivX
Format/Info : Hack of AVI
Dateigre : 328 MiB
Duration : 24min
Gesamte Bitrate : 1 895 Kbps

Video
Format : MPEG-4 Visual
Format settings, BVOP : Ja
Format settings, QPel : Nein
Format settings, GMC : No warppoints
Format settings, Matrix : Default
Muxing mode : Packet Bitstream
Codec ID : DX50
Codec ID/Hint : DivX 5
Duration : 24min
Bitrate : 1 496 Kbps
Breite : 720 Pixel
Höhe : 576 Pixel
Bildseitenverhältnis : 16/9
Bildwiederholungsrate : 25,000 FPS
Standard : PAL
Auflösung : 24 bits
Colorimetry : 4:2:0
Scan type : Progressive
Bits/(Pixel*Frame) : 0.144
Stream size : 259 MiB (79)
Titel : Video
verwendete Encoder-Bibliothek : DivX 2151

Audio #1
Format : AC-3
Format/Info : Audio Coding 3
Codec ID : 2000
Duration : 24min
Bitraten-Modus : Constant
Bitrate : 192 Kbps
Kanäle : 2 Kanäle
Channel positions : L R
Samplingrate : 48,0 KHz
Stream size : 33,2 MiB (10)
Alignment : Split accross interleaves
Interleave, duration : 40 ms (1,00 video frame)
Interleave, preload duration : 500 ms
Titel : Audio

Audio #2
Format : AC-3
Format/Info : Audio Coding 3
Codec ID : 2000
Duration : 24min
Bitraten-Modus : Constant
Bitrate : 192 Kbps
Kanäle : 2 Kanäle
Channel positions : L R
Samplingrate : 48,0 KHz
Stream size : 33,2 MiB (10)
Alignment : Split accross interleaves
Interleave, duration : 40 ms (1,00 video frame)
Interleave, preload duration : 500 ms
Titel : Audio


Audio: deutsch, englisch

related torrents

Torrent name

health leech seeds Size

Heat Guy J Vol 4

0 0 1.00 GB 0

Heat Guy J Vol 5

0 0 1.00 GB 0
 

comments (0)

Main Menu