Thriller

Restraint Wenn die Angst zur Falle wird 2008 Deutsch Xvid

  • Download 5x Faster
  • Download torrent
  • Direct Download
  • Rate this torrent +  |  -
Restraint Wenn die Angst zur Falle wird 2008 Deutsch Xvid

Free and Direct Download with Usenet.nl 300GB+ free


Torrent info

Name:Restraint Wenn die Angst zur Falle wird 2008 Deutsch Xvid

Total Size: 699.95 MB

Magnet: Magnet Link

Seeds: 3

Leechers: 0

Stream: Watch Online @ Movie4u

Last Updated: 2011-01-05 03:58:43 (Update Now)

Torrent added: 2008-11-11 08:36:08





Torrent Files List


Nuevo Documento de texto.txt (Size: 699.95 MB) (Files: 3)

 Nuevo Documento de texto.txt

2.74 KB

 Restraint.avi

699.93 MB

 t-41880-1.jpg

10.91 KB
 

Announce URL: http://irrenhaus.dyndns.dk/announce.php

Torrent description


NFO Creator

Release Date: 27.09.2008
Store Date: 02.10.2008
Genre.: Drama Thriller
Runtime..: 88 Minutes

Video
Format : MPEG-4 Visual
Format profile : Streaming [email protected]
Format settings, BVOP : Ja
Format settings, QPel : Nein
Format settings, GMC : No warpoints
Format settings, Matrix : Default
Codec ID : XVID
Codec ID/Hint : XviD
Duration : 1h 27min
Bitrate : 959 Kbps
Breite : 640 Pixel
Höhe : 352 Pixel
Bildseitenverhältnis : 16/9
Bildwiederholungsrate : 25.000 FPS
Auflösung : 8 bits
Colorimetry : 4:2:0
Scan type : Progressive
Bits/(Pixel*Frame) : 0.170
Stream size : 602 MiB
verwendete Encoder-Bibliothek : XviD 1.2.0.dev47 (UTC 2006-11-01)

Audio
Format : MPEG Audio
Format version : Version 1
Format profile : Layer 3
Codec ID : 55
Codec ID/Hint : MP3
Duration : 1h 27min
Bitraten-Modus : Variable
Bitrate : 143 Kbps
Minimum bit rate : 32.0 Kbps
Kanäle : 2 Kanäle
Samplingrate : 48.0 KHz
Auflösung : 16 bits
Stream size : 89.9 MiB
verwendete Encoder-Bibliothek : LAME3.98b
Kodierungseinstellungen : VBR (mtrh)


NFO Creator

www.CyberLeadingCorp.fr.fm


related torrents

Torrent name

health leech seeds Size
 

comments (0)

Main Menu