Asian

GRAMAPHONE (MALAYALAM) 2003 ^^LTM^^

  • Download 5x Faster
  • Download torrent
  • Direct Download
  • Rate this torrent +  |  -
GRAMAPHONE (MALAYALAM) 2003 ^^LTM^^

Free and Direct Download with Usenet.nl 300GB+ free


Torrent info

Name:GRAMAPHONE (MALAYALAM) 2003 ^^LTM^^

Total Size: 627.53 MB

Magnet: Magnet Link

Seeds: 0

Leechers: 0

Stream: Watch Online @ Movie4u

Last Updated: 0000-00-00 00:00:00 (Update Now)

Torrent added: 2008-11-11 08:35:22





Torrent Files List


!IMPORTANT!.txt (Size: 627.53 MB) (Files: 3)

 !IMPORTANT!.txt

1.91 KB

 GRAMAPHONE [2003] ^^LTM^^.avi

627.53 MB

 GRAMAPHONE [2003] ^^LTM^^.nfo

3.85 KB
 

Announce URL:

Torrent description

^^^^^^^^^^^^^^^^^^^^^^^^^^^^^^^^^^^^^^^^^^^^^^^^^^^^^^^^^^^^^^^^^^^^^^^


GRAMAPHONE [2003] ^^LTM^^


Cast : Dilip, Meera Jasmine, Navya Nair,....

Director : Kamal

IMDB Rate : 7.5

IMDB Link : http://www.imdb.com/title/tt0377994/

Presentation : Moserbaer

Uploader : ^^LTM^^

-------------------------------------------------------------------------

Format : AVI
Format/Info : Audio Video Interleave
File size : 628 MiB
Duration : 2h 26mn
Overall bit rate : 600 Kbps


Video
Format : MPEG-4 Visual
Format settings, BVOP : Yes
Format settings, QPel : No
Format settings, GMC : No warppoints
Format settings, Matrix : Default
Muxing mode : Packed bitstream
Codec ID : DX50
Codec ID/Hint : DivX 5
Duration : 2h 26mn
Bit rate : 476 Kbps
Width : 444 pixels
Height : 204 pixels
Display aspect ratio : 2.2
Frame rate : 25.000 fps
Resolution : 24 bits
Colorimetry : 4:2:0
Scan type : Progressive
Bits/(Pixel*Frame) : 0.210
Stream size : 497 MiB (79%)
Writing library : DivX 2676

Audio
Format : MPEG Audio
Format version : Version 1
Format profile : Layer 3
Codec ID : 55
Codec ID/Hint : MP3
Duration : 2h 26mn
Bit rate mode : Constant
Bit rate : 112 Kbps
Channel(s) : 2 channels
Sampling rate : 48.0 KHz
Resolution : 16 bits
Stream size : 117 MiB (19%)
Alignment : Aligned on interleaves
Interleave, duration : 40 ms (1.01 video frame)
Interleave, preload duration : 384 ms

related torrents

Torrent name

health leech seeds Size
 

comments (0)

Main Menu