TV - Other

Alle unter einen Dach Season 9 TVRip DivX

  • Download 5x Faster
  • Download torrent
  • Direct Download
  • Rate this torrent +  |  -
Alle unter einen Dach Season 9 TVRip DivX

Anonymous and Free Direct Download 300GB+


Torrent info

Name:Alle unter einen Dach Season 9 TVRip DivX

Total Size: 4.56 GB

Magnet: Magnet Link

Seeds: 1

Leechers: 1

Stream: Watch Online @ Movie4u

Last Updated: 0000-00-00 00:00:00 (Update Now)

Torrent added: 2008-11-11 04:38:18



VPN For Torrents

Torrent Files List


Alle.unter.einem.Dach.S09E01.Kleine.Defizide.avi (Size: 4.12 GB) (Files: 20)

 Alle.unter.einem.Dach.S09E01.Kleine.Defizide.avi

197.10 MB

 Alle.unter.einem.Dach.S09E02.Die.Waffen.nieder.avi

199.20 MB

 Alle.unter.einem.Dach.S09E03.Der.Debuetantinnenball.avi

197.12 MB

 Alle.unter.einem.Dach.S09E04.Ein.Kuss.veraendert.alles.avi

197.13 MB

 Alle.unter.einem.Dach.S09E05.Das.kleine.schwarze.Buch.avi

197.28 MB

 Alle.unter.einem.Dach.S09E06.Der.Gedankenleser.avi

193.90 MB

 Alle.unter.einem.Dach.S09E07.Die.Rueckkehr.der.Teufelspuppe.avi

193.92 MB

 Alle.unter.einem.Dach.S09E08.Vertauschte.Rollen.avi

195.20 MB

 Alle.unter.einem.Dach.S09E09.Der.goldene.Wurf.avi

178.80 MB

 Alle.unter.einem.Dach.S09E10.Mein.Cousin.heisst.OGD.avi

224.71 MB

 Alle.unter.einem.Dach.S09E11.Das.schoenste.Geschenk.avi

224.62 MB

 Alle.unter.einem.Dach.S09E12.Kochen.wie.in.Japan.avi

224.71 MB

 Alle.unter.einem.Dach.S09E13.Eddies.Entschluss.avi

225.00 MB

 Alle.unter.einem.Dach.S09E14.Die.letzte.Polka.avi

225.06 MB

 Alle.unter.einem.Dach.S09E15.Das.Liebesdreieck.avi

225.01 MB

 Alle.unter.einem.Dach.S09E16.2.Ladies.im.Ring.avi

224.65 MB

 Alle.unter.einem.Dach.S09E17.Die.erste.Polka.avi

224.63 MB

 Alle.unter.einem.Dach.S09E18.Der.blinde.Passagier.avi

225.04 MB

 Alle.unter.einem.Dach.S09E19.Captain.Carl.und.die.Massage.avi

225.01 MB

 Alle.unter.einem.Dach.S09E20.Zwei.Maenner.ein.Ziel.avi

225.02 MB
 

Announce URL: http://wreckingcrew.kicks-ass.net/announce.php

Torrent description


::::Edelweis-Group Presents::::

Torrent Name: Alle unter einen Dach Season 9 Complete

Serienupload: Teil 9/9

-

> Movie/Serie

Sprache: [X] Deutsch [ ] Englisch [ ] siehe Beschreibung

Quelle:
Video: [ ] HDTV [ ] DVD [X] TV/dTV [ ] TS [ ] Cam [ ] Sonstiges
Audio: [ ] AC3 [ ] DVD [X] TV/dTV [ ] LD [ ] Micro [ ] Sonstiges

Genre: Serie/Comedy/Sitcom


Untertitel: keine

Extras: keine



-

Beschreibung:
Die afroamerikanische mittelständische Familie Winslow wohnt in einem Vorort der amerikanischen Grossstadt Chicago neben ihren Nachbarn, den Urkels und den Niedermeyers. In jeder Folge führen typische Verhaltensmerkmale der Charaktere zu Problemen, die es zu lösen gilt. Im Gegensatz zu den meisten anderen Sitcoms sind überraschend viele dramatische und ernst gemeinte Elemente vorzufinden. Ebenfalls fällt bei Alle unter einem Dach ein häufiges Abgleiten in die Fiktion auf, zum Beispiel in Form einer von Urkel entwickelten Zeitmaschine. Mit ihren 215 Episoden in insgesamt 9 Staffeln gehört sie zu den erfolgreichsten Sitcoms überhaupt. Sie wurde von Warner Bros. Television produziert. Der Hauptanteil des Erfolgs ist wohl auf den heimlichen Hauptcharakter Steve Urkel zurückzuführen, dessen unabsichtlich chaotisches Verhalten eine einzigartig skurrile Komik herbeiführt. Letztendlich werden alle auftretenden Probleme durch den Zusammenhalt der Familie gelöst, daher der Originaltitel der Serie.

-

Technische Details:
General
Complete name : Alle.unter.einem.Dach.S09E01.Kleine.Defizide.avi
Format : DivX
Format/Info : Hack of AVI
File size : 197 MiB
Duration : 22mn 15s
Overall bit rate : 1238 Kbps

Video
Format : MPEG-4 Visual
Format settings, BVOP : Yes
Format settings, QPel : No
Format settings, GMC : No warppoints
Format settings, Matrix : Default
Muxing mode : Packet Bitstream
Codec ID : DX50
Codec ID/Hint : DivX 5
Duration : 22mn 15s
Bit rate : 1100 Kbps
Width : 704 pixels
Height : 528 pixels
Display aspect ratio : 4/3
Frame rate : 25.000 fps
Resolution : 8 bits
Colorimetry : 4:2:0
Scan type : Progressive
Bits/(Pixel*Frame) : 0.118
Stream size : 175 MiB (89)
Title : Video
Writing library : DivX 1670

Audio
Format : MPEG Audio
Format version : Version 1
Format profile : Layer 3
Codec ID : 55
Codec ID/Hint : MP3
Duration : 22mn 15s
Bit rate mode : Constant
Bit rate : 128 Kbps
Channel(s) : 2 channels
Sampling rate : 48.0 KHz
Resolution : 16 bits
Stream size : 20.4 MiB (10)
Alignment : Split accross interleaves
Interleave, duration : 40 ms (1.00 video frame)
Interleave, preload duration : 500 ms
Title : Audio








** Ende der Serie **



Note:

Happy Leeching und das Seeden nicht vergessen

Wuerdigt die Arbeit eines jeden Uppers mit einen Danke und/oder eines netten Kommentars.

Bin fuer Lob und Kritik stets offen.





NFO File make with ZNFO Maker V6.0
(C)2008 by Edelweis-Group

related torrents

Torrent name

health leech seeds Size
 


comments (0)

Main Menu