TV - Other

Alle unter einen Dach Season 8 TVRip DivX

  • Download 5x Faster
  • Download torrent
  • Direct Download
  • Rate this torrent +  |  -
Alle unter einen Dach Season 8 TVRip DivX

Download FREE And Anonymously


Torrent info

Name:Alle unter einen Dach Season 8 TVRip DivX

Total Size: 4.17 GB

Magnet: Magnet Link

Seeds: 1

Leechers: 1

Stream: Watch Full Movie @ Movie4u

Last Updated: 2010-09-19 13:21:58 (Update Now)

Torrent added: 2008-11-11 04:38:17



VPN For Torrents

Torrent Files List


Alle.unter.einem.Dach.S08E01.Freiflug.nach.Paris.1.avi (Size: 4.17 GB) (Files: 24)

 Alle.unter.einem.Dach.S08E01.Freiflug.nach.Paris.1.avi

189.54 MB

 Alle.unter.einem.Dach.S08E02.Freiflug.nach.Paris.2.avi

145.39 MB

 Alle.unter.einem.Dach.S08E03.Freiflug.nach.Paris.3.avi

170.97 MB

 Alle.unter.einem.Dach.S08E04.Heimweh.nach.Chicago.avi

177.79 MB

 Alle.unter.einem.Dach.S08E05.Ein.Mann.auf.der.Flucht.avi

178.18 MB

 Alle.unter.einem.Dach.S08E06.Ein.nobler.Mann.avi

179.05 MB

 Alle.unter.einem.Dach.S08E07.Die.Teufelspuppe.avi

178.71 MB

 Alle.unter.einem.Dach.S08E08.Karate.Kids.avi

173.24 MB

 Alle.unter.einem.Dach.S08E09.Der.Koenig.der.Romantik.avi

179.05 MB

 Alle.unter.einem.Dach.S08E10.Die.Albtraumhochzeit.avi

192.61 MB

 Alle.unter.einem.Dach.S08E11.Gefuegel.mit.Pep.avi

177.14 MB

 Alle.unter.einem.Dach.S08E12.Der.zwoelfte.Geschworene.avi

194.99 MB

 Alle.unter.einem.Dach.S08E13.Das.Fest.der.Liebe.avi

176.30 MB

 Alle.unter.einem.Dach.S08E14.Die.Idiotenparty.avi

178.31 MB

 Alle.unter.einem.Dach.S08E15.Wenn.Torten.fliegen.avi

178.39 MB

 Alle.unter.einem.Dach.S08E16.Der.reichste.Mann.der.Welt.avi

174.95 MB

 Alle.unter.einem.Dach.S08E17.Schoenheitskoeniginnen.avi

174.05 MB

 Alle.unter.einem.Dach.S08E18.Dreimal.grosse.Liebe.avi

179.46 MB

 Alle.unter.einem.Dach.S08E19.Was.wissen.Sie.avi

175.22 MB

 Alle.unter.einem.Dach.S08E20.Full.House.mit.Dame.avi

178.77 MB

 Alle.unter.einem.Dach.S08E21.Der.jodelnde.Risikofactor.avi

178.63 MB

 Alle.unter.einem.Dach.S08E22.Pfundig.Pfundig.avi

175.91 MB

 Alle.unter.einem.Dach.S08E23.Die.Herausforderung.avi

174.34 MB

 Alle.unter.einem.Dach.S08E24.Captain.Carl.der.Dicke.avi

190.11 MB
 

Announce URL: http://wreckingcrew.kicks-ass.net/announce.php

Torrent description



::::Edelweis-Group Presents::::

Torrent Name: Alle unter einen Dach Season 8 Complete

Serienupload: Teil 8/9

-

> Movie/Serie

Sprache: [X] Deutsch [ ] Englisch [ ] siehe Beschreibung

Quelle:
Video: [ ] HDTV [ ] DVD [X] TV/dTV [ ] TS [ ] Cam [ ] Sonstiges
Audio: [ ] AC3 [ ] DVD [X] TV/dTV [ ] LD [ ] Micro [ ] Sonstiges

Genre: Serie/Comedy/Sitcom


Untertitel: keine

Extras: keine



-

Beschreibung:
Die afroamerikanische mittelständische Familie Winslow wohnt in einem Vorort der amerikanischen Grossstadt Chicago neben ihren Nachbarn, den Urkels und den Niedermeyers. In jeder Folge führen typische Verhaltensmerkmale der Charaktere zu Problemen, die es zu lösen gilt. Im Gegensatz zu den meisten anderen Sitcoms sind überraschend viele dramatische und ernst gemeinte Elemente vorzufinden. Ebenfalls fällt bei Alle unter einem Dach ein häufiges Abgleiten in die Fiktion auf, zum Beispiel in Form einer von Urkel entwickelten Zeitmaschine. Mit ihren 215 Episoden in insgesamt 9 Staffeln gehört sie zu den erfolgreichsten Sitcoms überhaupt. Sie wurde von Warner Bros. Television produziert. Der Hauptanteil des Erfolgs ist wohl auf den heimlichen Hauptcharakter Steve Urkel zurückzuführen, dessen unabsichtlich chaotisches Verhalten eine einzigartig skurrile Komik herbeiführt. Letztendlich werden alle auftretenden Probleme durch den Zusammenhalt der Familie gelöst, daher der Originaltitel der Serie.

-

Technische Details:
General
Format : DivX
Format/Info : Hack of AVI
File size : 190 MiB
Duration : 23mn 16s
Overall bit rate : 1138 Kbps

Video
Format : MPEG-4 Visual
Format settings, BVOP : Yes
Format settings, QPel : No
Format settings, GMC : No warppoints
Format settings, Matrix : Default
Codec ID : DX50
Codec ID/Hint : DivX 5
Duration : 23mn 16s
Bit rate : 1001 Kbps
Width : 640 pixels
Height : 480 pixels
Display aspect ratio : 4/3
Frame rate : 25.000 fps
Resolution : 8 bits
Colorimetry : 4:2:0
Scan type : Progressive
Bits/(Pixel*Frame) : 0.130
Stream size : 167 MiB (88)
Writing library : DivX 6.0.0 (DivX Converter1.0) (UTC 2005-06)

Audio
Format : MPEG Audio
Format version : Version 1
Format profile : Layer 3
Codec ID : 55
Codec ID/Hint : MP3
Duration : 23mn 16s
Bit rate mode : Constant
Bit rate : 128 Kbps
Channel(s) : 2 channels
Sampling rate : 44.1 KHz
Resolution : 16 bits
Stream size : 21.3 MiB (11)
Alignment : Split accross interleaves
Interleave, duration : 40 ms (1.00 video frame)
Interleave, preload duration : 500 ms
Title : Audio - ;







** Restliche Staffeln folgen **



Note:

Happy Leeching und das Seeden nicht vergessen

Wuerdigt die Arbeit eines jeden Uppers mit einen Danke und/oder eines netten Kommentars.

Bin fuer Lob und Kritik stets offen.





NFO File make with ZNFO Maker V6.0
(C)2008 by Edelweis-Group

related torrents

Torrent name

health leech seeds Size
 


comments (0)

Main Menu

 

script data-cfasync="false" src="//d2ghscazvn398x.cloudfront.net/?cshgd=690275">