TV - Other

Alle unter einen Dach Season 5 TVRip DivX

  • Download 5x Faster
  • Download torrent
  • Direct Download
  • Rate this torrent +  |  -
Alle unter einen Dach Season 5 TVRip DivX

Free and Direct Download with Usenet.nl 300GB+ free


Torrent info

Name:Alle unter einen Dach Season 5 TVRip DivX

Total Size: 3.51 GB

Magnet: Magnet Link

Seeds: 3

Leechers: 2

Stream: Watch Online @ Movie4u

Last Updated: 2010-07-11 21:19:09 (Update Now)

Torrent added: 2008-11-11 04:38:16





Torrent Files List


Alle.unter.einem.Dach.S05E01.Ein.breiter.Scheitel.avi (Size: 3.51 GB) (Files: 24)

 Alle.unter.einem.Dach.S05E01.Ein.breiter.Scheitel.avi

149.81 MB

 Alle.unter.einem.Dach.S05E02.Die.Nacht.im.Doppelbett.avi

149.66 MB

 Alle.unter.einem.Dach.S05E03.Der.Lebensretter.avi

149.73 MB

 Alle.unter.einem.Dach.S05E04.Kuess.mich.Dummkopf.avi

149.71 MB

 Alle.unter.einem.Dach.S05E05.Der.Wettkoenig.avi

149.75 MB

 Alle.unter.einem.Dach.S05E06.Freund.in.Not.avi

149.83 MB

 Alle.unter.einem.Dach.S05E07.Die.Basketball.Oma.avi

149.78 MB

 Alle.unter.einem.Dach.S05E08.Alle.lieben.Stephane.avi

149.86 MB

 Alle.unter.einem.Dach.S05E09.Mit.den.Waffen.einer.Frau.avi

149.91 MB

 Alle.unter.einem.Dach.S05E10.Autokino.fuer.Anfaenger.avi

149.78 MB

 Alle.unter.einem.Dach.S05E11.Das.Weihnachtsgefuehl.avi

149.99 MB

 Alle.unter.einem.Dach.S05E12.Der.Sofa.Dinosaurier.avi

149.78 MB

 Alle.unter.einem.Dach.S05E13.College.oder.Karriere.avi

149.76 MB

 Alle.unter.einem.Dach.S05E14.Die.maennliche.Jungfrau.avi

149.79 MB

 Alle.unter.einem.Dach.S05E15.Der.Zorn.des.Eddie.Winslow.avi

149.77 MB

 Alle.unter.einem.Dach.S05E16.Steve.vor.Gericht.avi

149.68 MB

 Alle.unter.einem.Dach.S05E17.Es.geschah.beim.Bowling.avi

149.73 MB

 Alle.unter.einem.Dach.S05E18.Die.schrecklichen.Zwei.avi

149.75 MB

 Alle.unter.einem.Dach.S05E19.Trau.Dich.Carl.avi

149.80 MB

 Alle.unter.einem.Dach.S05E20.Gegensaetze.ziehen.sich.an.avi

149.72 MB

 Alle.unter.einem.Dach.S05E21.Vier.Maenner.im.Zelt.avi

149.79 MB

 Alle.unter.einem.Dach.S05E22.Unter.Schwestern.avi

150.03 MB

 Alle.unter.einem.Dach.S05E23.Tante.Oona.aus.Altoona.avi

150.02 MB

 Alle.unter.einem.Dach.S05E24.Zu.schoen.um.wahr.zu.sein.avi

149.76 MB
 

Announce URL: http://wreckingcrew.kicks-ass.net/announce.php

Torrent description


::::Edelweis-Group Presents::::

Torrent Name: Alle unter einen Dach Season 5 Complete

Serienupload: Teil 5/9

-

> Movie/Serie

Sprache: [X] Deutsch [ ] Englisch [ ] siehe Beschreibung

Quelle:
Video: [ ] HDTV [ ] DVD [X] TV/dTV [ ] TS [ ] Cam [ ] Sonstiges
Audio: [ ] AC3 [ ] DVD [X] TV/dTV [ ] LD [ ] Micro [ ] Sonstiges

Genre: Serie/Comedy/Sitcom


Untertitel: keine

Extras: keine



-

Beschreibung:
Die afroamerikanische mittelständische Familie Winslow wohnt in einem Vorort der amerikanischen Grossstadt Chicago neben ihren Nachbarn, den Urkels und den Niedermeyers. In jeder Folge führen typische Verhaltensmerkmale der Charaktere zu Problemen, die es zu lösen gilt. Im Gegensatz zu den meisten anderen Sitcoms sind überraschend viele dramatische und ernst gemeinte Elemente vorzufinden. Ebenfalls fällt bei Alle unter einem Dach ein häufiges Abgleiten in die Fiktion auf, zum Beispiel in Form einer von Urkel entwickelten Zeitmaschine. Mit ihren 215 Episoden in insgesamt 9 Staffeln gehört sie zu den erfolgreichsten Sitcoms überhaupt. Sie wurde von Warner Bros. Television produziert. Der Hauptanteil des Erfolgs ist wohl auf den heimlichen Hauptcharakter Steve Urkel zurückzuführen, dessen unabsichtlich chaotisches Verhalten eine einzigartig skurrile Komik herbeiführt. Letztendlich werden alle auftretenden Probleme durch den Zusammenhalt der Familie gelöst, daher der Originaltitel der Serie.

-

Technische Details:
General
Format : AVI
Format/Info : Audio Video Interleave
File size : 150 MiB
Duration : 21mn 38s
Overall bit rate : 967 Kbps
Writing application : VirtualDubMod 1.5.4.1 (build 2178/release)
Writing library : VirtualDubMod build 2178/release

Video
Format : MPEG-4 Visual
Format profile : Streaming [email protected]
Format settings, BVOP : Yes
Format settings, QPel : No
Format settings, GMC : No warppoints
Format settings, Matrix : Custom
Codec ID : XVID
Codec ID/Hint : XviD
Duration : 21mn 38s
Bit rate : 832 Kbps
Width : 576 pixels
Height : 432 pixels
Display aspect ratio : 4/3
Frame rate : 25.000 fps
Resolution : 8 bits
Colorimetry : 4:2:0
Scan type : Progressive
Bits/(Pixel*Frame) : 0.134
Stream size : 129 MiB (86)
Writing library : XviD 1.2.0SMP (UTC 2006-01-08)

Audio
Format : MPEG Audio
Format version : Version 1
Format profile : Layer 3
Codec ID : 55
Codec ID/Hint : MP3
Duration : 21mn 38s
Bit rate mode : Constant
Bit rate : 128 Kbps
Minimum bit rate : 128 Kbps
Channel(s) : 2 channels
Sampling rate : 48.0 KHz
Resolution : 16 bits
Stream size : 19.8 MiB (13)
Alignment : Aligned on interleaves
Interleave, duration : 80 ms (2.00 video frames)
Interleave, preload duration : 504 ms
Writing library : LAME3.97b
Encoding settings : CBR





** Restliche Staffeln folgen **



Note:

Happy Leeching und das Seeden nicht vergessen

Wuerdigt die Arbeit eines jeden Uppers mit einen Danke und/oder eines netten Kommentars.

Bin fuer Lob und Kritik stets offen.





NFO File make with ZNFO Maker V6.0
(C)2008 by Edelweis-Group

related torrents

Torrent name

health leech seeds Size
 

comments (0)

Main Menu