Drama

Ein Offizier und Gentleman avi

  • Download 5x Faster
  • Download torrent
  • Direct Download
  • Rate this torrent +  |  -
Ein Offizier und Gentleman avi

Free and Direct Download with Usenet.nl 300GB+ free


Torrent info

Name:Ein Offizier und Gentleman avi

Total Size: 1.37 GB

Magnet: Magnet Link

Seeds: 0

Leechers: 0

Stream: Watch Online @ Movie4u

Last Updated: 2011-04-24 15:33:37 (Update Now)

Torrent added: 2008-11-10 08:40:23





Torrent Files List


Ein Offizier und Gentleman.avi (Size: 1.37 GB) (Files: 1)

 Ein Offizier und Gentleman.avi

1.37 GB
 

Announce URL:

Torrent description


Allgemein
Vollständiger Name : C:Users3333DesktopEin Offizier und GentlemanEin Offizier und Gentleman.avi
Format : AVI
Format/Info : Audio Video Interleave
Dateigre : 1,37 GiB
Duration : 1h 58min
Gesamte Bitrate : 1 652 Kbps
Verwendetes Programm : VirtualDubMod 1.5.4.1 (build 2178/release)
verwendete Encoder-Bibliothek : VirtualDub build 28346/release

Video
Format : MPEG-4 Visual
Format profile : Streaming [email protected]
Format settings, BVOP : Ja
Format settings, QPel : Nein
Format settings, GMC : No warppoints
Format settings, Matrix : Custom
Codec ID : XVID
Codec ID/Hint : XviD
Duration : 1h 58min
Bitrate : 1 386 Kbps
Breite : 560 Pixel
Höhe : 416 Pixel
Bildseitenverhältnis : 4/3
Bildwiederholungsrate : 25,000 FPS
Auflösung : 24 bits
Colorimetry : 4:2:0
Scan type : Progressive
Bits/(Pixel*Frame) : 0.238
Stream size : 1,15 GiB (84)
verwendete Encoder-Bibliothek : XviD 1.2.0.dev47 (UTC 2006-11-01)

Audio
Format : AC-3
Format/Info : Audio Coding 3
Codec ID : 2000
Duration : 1h 58min
Bitraten-Modus : Constant
Bitrate : 256 Kbps
Kanäle : 2 Kanäle
Channel positions : L R
Samplingrate : 48,0 KHz
Stream size : 217 MiB (15)
Alignment : Split accross interleaves
Interleave, duration : 40 ms (1,00 video frame)
Interleave, preload duration : 500 ms


Handlung

Zack Mayo ist einer von vielen jungen Männern, die an der Fliegerschule der US Navy ihr
Offizierspatent machen wollen. Im Leben bereits gescheitert, ist eine militärische Laufbahn
seine einzige Chance. Mit seinem schlechten Benehmen und seiner aalglatten Art legt er sich jedoch
selbst Steine in den Weg. Es dauert nicht lange, bis er ernsthaft mit seinem Ausbilder,
Gunnery Sergeant Emil Foley, aneinandergerät. Während dieser auf seine ganz eigene Art versucht,
ihn zum Mann zu formen, muss Mayo sich auch mit anderen Gefühlen auseinandersetzen,
als er sich in die Fabrikarbeiterin Paula verliebt, die davon träumt, als Ehefrau eines Offiziers
ihrer trostlosen Lage zu entkommen.
Foley erwischt Zack bei Betrügereien und will ihn durch allerlei Schikanen zum Verlassen
der Ausbildungseinheit zwingen, doch dieser hat keine andere Perspektive im Leben.
Mayo ändert sich und wird teamfähiger. Trotz aller Widerstände beendet er die Ausbildung erfolgreich,
als melodramatischen Höhepunkt der Handlung betritt er schließlich in Galauniform die Papierfabrik
und trägt Paula unter dem Beifall der anderen Arbeiterinnen auf Händen aus der Werkshalle.
In einem weiteren Handlungsstrang verliebt sich sein Freund Sid ebenfalls in eine Arbeiterin
der Papierfabrik. Diese ist allerdings nicht an ihm selbst, sondern nur an einem Leben als
Offiziersgattin interessiert und lässt ihn nach Scheitern seiner Ausbildung eiskalt fallen.
Sid bringt sich daraufhin um.

related torrents

Torrent name

health leech seeds Size
 

comments (0)

Main Menu