Anime - Other

Futakoi Alternative 1 13

  • Download 5x Faster
  • Download torrent
  • Direct Download
  • Rate this torrent +  |  -
Futakoi Alternative 1 13

Free and Direct Download with Usenet.nl 300GB+ free


Torrent info

Name:Futakoi Alternative 1 13

Total Size: 2.50 GB

Magnet: Magnet Link

Seeds: 2

Leechers: 1

Stream: Watch Online @ Movie4u

Last Updated: 2011-01-04 15:09:03 (Update Now)

Torrent added: 2008-11-10 08:33:05





Torrent Files List


Futakoi Alternative Ep 01.avi (Size: 2.50 GB) (Files: 13)

 Futakoi Alternative Ep 01.avi

199.70 MB

 Futakoi Alternative Ep 02.avi

198.37 MB

 Futakoi Alternative Ep 03.avi

198.48 MB

 Futakoi Alternative Ep 04.avi

197.82 MB

 Futakoi Alternative Ep 05.avi

192.60 MB

 Futakoi Alternative Ep 06.avi

192.02 MB

 Futakoi Alternative Ep 07.avi

193.12 MB

 Futakoi Alternative Ep 08.avi

194.00 MB

 Futakoi Alternative Ep 09.avi

199.29 MB

 Futakoi Alternative Ep 10.avi

199.27 MB

 Futakoi Alternative Ep 11.avi

199.38 MB

 Futakoi Alternative Ep 12.avi

199.27 MB

 Futakoi Alternative Ep 13.avi

199.05 MB
 

Announce URL: http://h-n-h.ath.cx/announce.php

Torrent description

Futakoi Alternative 1-13



=======================
File-Details:
=======================

Zielgruppe: Seinen
Setting : Detective
Genre : Action,Comedy,Ecchi
Jahr : 2005 (07.04.2005 bis 30.06.2005)
Typ : TV, 13 (ca. 25 Min.)

Webseiten : http://www.animenewsnetwork.com/encyclopedia/anime.php?id=5062

=======================
Codec:
=======================

Format : AVI
Format/Info : Audio Video Interleave
Dateigre : 200 MiB
Duration : 25min
Gesamte Bitrate : 1 106 Kbps
Verwendetes Programm : Nandub v1.0rc2
verwendete Encoder-Bibliothek : Nandub build 1853/release

Video
Format : MPEG-4 Visual
Format profile : Streaming [email protected]
Format settings, BVOP : Ja
Format settings, QPel : Nein
Format settings, GMC : No warppoints
Format settings, Matrix : Default
Muxing mode : Packet Bitstream
Codec ID : XVID
Codec ID/Hint : XviD
Duration : 25min
Bitrate : 967 Kbps
Breite : 640 Pixel
Höhe : 480 Pixel
Bildseitenverhältnis : 4/3
Bildwiederholungsrate : 23,976 FPS
Auflösung : 24 bits
Colorimetry : 4:2:0
Scan type : Progressive
Bits/(Pixel*Frame) : 0.131
Stream size : 175 MiB (87)
verwendete Encoder-Bibliothek : XviD 1.2.0SMP (UTC 2006-01-08)

Audio
Format : MPEG Audio
Format version : Version 1
Format profile : Layer 3
Codec ID : 55
Codec ID/Hint : MP3
Duration : 25min
Bitraten-Modus : Variable
Bitrate : 126 Kbps
Minimum bit rate : 32,0 Kbps
Kanäle : 2 Kanäle
Samplingrate : 48,0 KHz
Auflösung : 16 bits
Video0 Verzögerung : 15ms
Stream size : 22,7 MiB (11)
Alignment : Aligned on interleaves
Interleave, duration : 24 ms (0,58 video frame)
Interleave, preload duration : 381 ms
verwendete Encoder-Bibliothek : LAME3.97b
Kodierungseinstellungen : VBR (rh)



=======================
Inhalt:
=======================

Futaba Rentaro ("Nidaime&quot besitzt ein Detektivbüro im Nikotamagawa Einkaufsviertel, welches er von seinem Vater geerbt hat. Eines Tages tauchen die Zwillinge Sara und Sojiu Shirogane auf, welche ihm ein Job-Angebot unterbreiten, das sein ganzes Leben verändern wird. Zwei Jahre später lebt Rentaro sorglos mit den Zwillingen zusammen, als die Ereignisse sich plötzlich überschlagen und ihn dazu zwingen, seine Situation zu überdenken.

Futakoi Alternative beginnt als fulminantes Action- und Comedyspektakel und verlagert sich im Laufe der Serie immer mehr in ein gefühlvolles Drama gespickt mit Comedyelemente


=======================
Japanese staff:
=======================

Chief Director: Takayuki Hirao

Series director: Matsuri Ouse

Director: Takayuki Hirao (OP)

Series Composition: Ryunosuke Kingetsu

Script:
Katsumi Teratou (ep 4)
Kazuharu Sato (ep 6)
Matsuri Ouse (ep 5)
Ryunosuke Kingetsu (Ep 1 - 4, 6 - 13)

Storyboard:
Katsumi Teratou (ep 4 - 6, 13)
Masashi Abe (ep 2)
Matsuri Ouse (OP, 8, 11)
Saburou Mochizuki (ep 8)
Shinji Takago (ep 9)
Takaharu Okuma (ep 12)
Takayuki Hirao (OP, Ep 1, 3, 7, 13)
Takuro Takahashi (OP)
Takuya Nonaka (ep 12)

Episode Director:
Fumiharu Kamanaka (ep 2, 10)
Hazuki Mizumoto (ep 6)
Masashi Abe (ep 2)
Satoshi Kadekaru (ep 5)
Seiya Numata (ep 11)
Shinji Takago (ep 9)
Takaharu Okuma (ep 12)
Takayuki Hirao (Ep 1, 3, 7. 13)
Tomoki Kobayashi (ep 4)
Yoshihide Yuuzumi (ep 8)

Music:
Shunsuke Suzuki
Tatsuya Murayama
Toshimichi Isoe

Character Design: Toshimitsu Kobayashi

Art director: Kuniaki Nemoto

Animation director:
Hidenori Yumoto (ep 9)
Hisashi Shimokawa (ep 2)
Kazuhiro Ota (ep 2)
Kiyoshi Tateishi (ep 6)
Kumiko Horikoshi (ep 8, 10)
Masakazu Saito (ep 5, 12)
Mizuki Aoi (ep 11)
Mutsumi Kadekaru (ep 1)
Sawako Yamamoto (ep 3)
Seiya Numata (ep 11)
Shinichiro Minami (ep 4)
Takuro Takahashi (layout, 7)
Toshimitsu Kobayashi (Overall, OP, 13)

Cgi director: Hiroaki Yanagisawa

Director of Photography:
Hiroaki Yanagisawa
Ryoma Sakamoto

Art Setting: Iho Narita

Colour Design: Emi Chiba

Editing: Tsuyoshi Imai

Key Animation:
Akio Shimotsukasa (OP)
Go Kimura (OP)
Jun Shibata (OP)
Kei Oikawa (OP)
Kei Shibasaki (ep 12)
Koji Watanabe (OP)
Masakazu Saito (OP)
Masashi Ayase (OP)
Masumi Fujita (OP)
Mitsuru Obunai (OP)
Orie Tanaka (OP)
Sadafuru Yuuho (OP)
Satoshi Takahashi (OP)
Seiya Numata (OP)
Soichiro Matsuda (OP)
Tomonori Sudou (OP)
Yoshihide Yuuzumi (OP)
Yoshiki Yamakawa (OP)

Production producer: Hikaru Kondo

Sound director: Jin Aketagawa

Theme Song Arrangement: Hajime Kikuchi (ED)

Theme Song Composition: Hajime Kikuchi (ED)

Theme Song Performance: eufonius (ED)


Kaori Mizuhashi as Sara Shirogane

Mai Kadowaki as Souju Shirogane

Tomokazu Seki as Rentarou Futaba

Hiromi Tsunakake as Yura Sakurazuki

Shizuka Hasegawa as Ruru Hinagiku

Yui Itsuki as Kira Sakurazuki

Yurika Ochiai as Rara Hinagiku

Ako Mayama as Vermilion-like lady

Ami Koshimizu as Sumireko Ichijou

Chiaki Takahashi as Ai Momoi

Eiji It as Kirishima Shimojima

Hirofumi Nojima as Kimihiko Mitsugi

Kenji Nomura as Gen-san

Kenta Miyake as Hinokichi Kinoshita

Kozue Yoshizumi as Ui Chigusa

Makoto Yasumura as Nishimori Hariyama

Masashi Hirose as Zenji Sakurazaki

Minako Sango as Mai Momoi

Natsuko Kuwatani as Koi Chigusa

Nobuyuki Hiyama as Yamada Kankurou

Toru Ohkawa as Ainosuke Futaba

Yui Horie as Kaoruko Ichijou

Yumiko Nakanishi as Michiru Koto

Yuuichi Nagashima as Ikafire

Daisuke Kirii (ep 1,5,11)

Hitomi Nabatame (ep 2)

Jin Horikawa (ep 4)

Kana Ueda (ep 1)

Kumiko Higa (ep 2,4)

Masako Joh (ep 6)

Masashi Oosato (ep 4)

Rina Satou (ep 7)

Risa Hayamizu (ep 7,11-13)

Shouto Kashii (ep 1)

Takayuki Kondou (ep 12,13)

Tarusuke Shingaki (ep 1,2,4)

Tomoyuki Shimura (ep 7)

Wataru Hatano (ep 1,12)

Yoshinori Sonobe (ep 12,13)

Youko Honna (ep 8,9)





=======================
Japanese companies:
=======================


Animation Production:
Feel
Flag
ufotable

Music Production: Starchild Records

Production: ufotable





http://h-n-h.ath.cx

related torrents

Torrent name

health leech seeds Size

Futakoi+alternative

0 0 2.00 GB 0
 

comments (0)

Main Menu