Horror

Silent Night, Deadly Night (1984) DvdRip Xvid {1337x} Noir

  • Download 5x Faster
  • Download torrent
  • Direct Download
  • Rate this torrent +  |  -
Silent Night, Deadly Night (1984) DvdRip Xvid {1337x} Noir

Anonymous and Free Direct Download 300GB+


Torrent info

Name:Silent Night, Deadly Night (1984) DvdRip Xvid {1337x} Noir

Total Size: 702.84 MB

Magnet: Magnet Link

Seeds: 0

Leechers: 0

Stream: Watch Online @ Movie4u

Last Updated: 0000-00-00 00:00:00 (Update Now)

Torrent added: 2008-11-09 22:48:15



VPN For Torrents

Torrent Files List


1337x.Org.txt (Size: 702.84 MB) (Files: 3)

 1337x.Org.txt

0.03 KB

 Noir.nfo

4.80 KB

 Silent Night, Deadly Night (1984) [DvdRip] [Xvid] {1337x}-Noir.avi

702.83 MB
 

Announce URL:

Torrent description

Silent Night, Deadly Night (1984) DvdRip Xvid {1337x} Noir preview 0

Screenshots

Silent Night, Deadly Night (1984) DvdRip Xvid {1337x} Noir preview 1

Silent Night, Deadly Night (1984) DvdRip Xvid {1337x} Noir preview 2

Silent Night, Deadly Night (1984) DvdRip Xvid {1337x} Noir preview 3

Silent Night, Deadly Night (1984) DvdRip Xvid {1337x} Noir preview 4
[code]


▓▓▓▓▓▓
▓█████▓ ▓▓▓▓
▓██████▓ ▓▓███▓
▓▓██████▓ ▓████▓▓▓▓▓▓
██████▓ ▓██▒█▓▓███▓▓ ▓▓▓▓▓▓▓▓▓▓▓▓▓
▓██▒████▓ ▓██▒█▓██████▓▓███▓███▓███▓▓
▓██▒▒████▓ ▓██▒███▒▒▒▒██▓████████████▓
▓██▒▒▒▒███▓ ▓██▒██▒▒▒▒▒▒███▒▒▒██▒█▒▒▒██▓▓
▓██▒▒██▒▒██▓▓██▒██▒▒█▒▒▒▒███████▒▒▒▒▒▒██▓
▓██▒▒███▒▒██▓██▒██▒█▓█▒▒▒██▒▒▒██▒▒██▒▒▒█▓
▓██▒▒████▒▒████▒██▒█▓█▒▒▒██▒▒▒██▒▒███▒██▓
▓██▒▒█▓███▒▒███▒██▒▒█▒▒▒▒██▒▒▒██▒▒██████▓
▓██▒▒█▓▓███▒▒██▒██▒▒▒▒▒▒▒██▒▒▒██▒▒██▓███▓
▓▓██▒▒█▓ ▓███▒▒█▒██▒▒▒▒▒▒▒███████▒▒██▓▓▓▓▓
▓▓███▒▒█▓ ▓███▒▒▒███▒▒▒▒▒██▓▓▓▓██▒▒██▓
▓████▒▒█▓ ▓███▒▒█████████▓▓ ▓██▒▒██▓
▓████▒▒█▓ ▓███▒█▓██████▓▓▓ ▓██████▓
▓███████▓ ▓▓████▓▓▓▓▓▓▓▓ ▓▓▓▓▓▓▓▓
▓▓▓▓▓▓▓▓▓ ▓▓▓▓▓




*************************************
* Silent Night, Deadly Night (1984) *
*************************************

________________________
General Information |
________________________|
_______________________________________________________________
Type : Movie
Format : AVI
Format/Info : Audio Video Interleave
File size : 702Mb
Duration : 1h 24mn
Language : English
Source : Dvd NTSC
Subtitles : None
Genre : Horror
IMDB Link : http://www.imdb.com/title/tt0088117/
Rating : 5.3/10
_______________________________________________________________
________________________________________________________________
Video
Format : MPEG-4 Visual
Codec ID/Hint : XviD
Duration : 1h 24mn
Bit rate : 1 016 Kbps
Width : 624 pixels
Height : 336 pixels
Display aspect ratio : 16/9
Frame rate : 23.976 fps
Bits/(Pixel*Frame) : 0.202
Stream size : 617 MiB (88%)
_______________________________________________________________
Audio
Format : MPEG Audio
Codec ID/Hint : MP3
Bit rate mode : Constant
Bit rate : 128 Kbps
Channel(s) : 2 channels
Sampling rate : 44.1 KHz
Stream size : 78.3 MiB (11%)
Writing library : LAME3.98.2
_______________________________________________________________
________________
Description
________________
_______________________________________________________________
A young boy watches his parents killed by a thief in a Santa
suit. He spends his youth in an orphanage, staying quietly
to his self, but his mind is further bent by an ironhanded
Mother Superior. He finally gets a job at a local store,
where he finally snaps when he is required to wear a Santa
suit, and goes on a killing spree that leads him slowly back
to the orphanage
_______________________________________________________________

___________________
Notes
___________________
_______________________________________________________________
Be aware People are starting to use my tag to create fake files
Make sure its a real genuine release from me, I have never and
will never do Cams,Telesyncs,Telecine or RAR files.Try to check
1337x.org to see if the file exist.

Fuck the fakers and enjoy my release.
_______________________________________________________________

___________________
Looking
___________________
_______________________________________________________________
Am looking for anybody who Wants to donate Direct or Line Audio
Pre Released R5\'s, Screeners, Dvds. Got anything else usefull?
Contact me at [email protected] or [email protected]
_______________________________________________________________
___________________
Post Information
___________________
_________________________________
Posted by............: Noir
Posted on............: 11/09/2008
_________________________________
[/code]

Silent Night, Deadly Night (1984) DvdRip Xvid {1337x} Noir preview 5

Silent Night, Deadly Night (1984) DvdRip Xvid {1337x} Noir preview 6

related torrents

Torrent name

health leech seeds Size
 


comments (0)

Main Menu