Anime - Other

Flag Vol 1, Episoden 01 05 Ger Jap Dub Ger Sub ADBT

  • Download 5x Faster
  • Download torrent
  • Direct Download
  • Rate this torrent +  |  -
Flag Vol 1, Episoden 01 05 Ger Jap Dub Ger Sub ADBT

Free and Direct Download with Usenet.nl 300GB+ free


Torrent info

Name:Flag Vol 1, Episoden 01 05 Ger Jap Dub Ger Sub ADBT

Total Size: 1.71 GB

Magnet: Magnet Link

Seeds: 0

Leechers: 0

Stream: Watch Online @ Movie4u

Last Updated: 2016-03-02 17:56:24 (Update Now)

Torrent added: 2008-11-09 08:33:17





Torrent Files List


EP01 (FLAG) by Hellseki.srt (Size: 1.71 GB) (Files: 13)

 EP01 (FLAG) by Hellseki.srt

17.57 KB

 EP01 (FLAG) by Hellseki.avi

348.87 MB

 EP02 (Porträt) by Hellseki.avi

348.87 MB

 EP02 (Porträt) by Hellseki.srt

17.41 KB

 EP03 (Recherche in Begleitung) by Hellseki.avi

348.85 MB

 EP03 (Recherche in Begleitung) by Hellseki.srt

20.44 KB

 EP04 (Die Nacht des Neumondes) by Hellseki.avi

348.52 MB

 EP04 (Die Nacht des Neumondes) by Hellseki.srt

25.72 KB

 EP05 (Hyperbeln in der Dunkelheit) by Hellseki.avi

348.87 MB

 EP05 (Hyperbeln in der Dunkelheit) by Hellseki.srt

23.80 KB

 FLAG - Die Serie Vol.01 - Cover Innen.jpg

1.21 MB

 FLAG - Die Serie Vol.01 - Cover.jpg

743.84 KB

 FLAG - Die Serie Vol.01 - Label.jpg

1.20 MB
 

tracker

leech seeds
 

Torrent description

Flag - Vol. 1, Episoden 01-05 [Ger-Jap Dub] [Ger Sub]

Seit Jahren tobt in Uddiyana ein Bürgerkrieg. Selbst die Friedenstruppen der Vereinten Nationen können
die Situation nicht unter Kontrolle bringen. Erst ein zufällig aufgenommenes Foto, das zeigt, wie
Zivilisten gemeinsam mit Soldaten eine improvisierte UN-Flagge hissen, verbreitet durch seine Symbolkraft
die Hoffnung auf Frieden. Dann jedoch wird die Fahne von Extremisten gestohlen, die den anstehenden
Waffenstillstand verhindern wollen. Daraufhin wird das Sondereinsatzkommando SDC beauftragt, die Flagge
zu finden und mit Hilfe von HAVWCs, modernen Kampfrobotern, zurückzuholen. Die Journalistin
Saeko Shirasu, die bereits das symbolträchtige Foto des Friedensbanners schoss, soll die Mission
begleiten und dokumentieren. Doch die Zeit wird knapp, denn aufgeheizt durch die Extremisten droht die
Stimmung in der Bevölkerung zu kippen

Vollständiger Name : S:FLAG - Die Serie Vol.1EP01 (FLAG) by Hellseki.avi
Format : AVI
Format/Info : Audio Video Interleave
Dateigre : 349 MiB
Duration : 24min
Gesamte Bitrate : 1 964 Kbps
Verwendetes Programm : VirtualDubMod 1.5.10.2 (build 2540/release)
verwendete Encoder-Bibliothek : VirtualDubMod build 2540/release

Video
Format : MPEG-4 Visual
Format profile : Streaming [email protected]
Format settings, BVOP : Ja
Format settings, QPel : Nein
Format settings, GMC : No warppoints
Format settings, Matrix : Default
Muxing mode : Packet Bitstream
Codec ID : XVID
Codec ID/Hint : XviD
Duration : 24min
Bitrate : 1 053 Kbps
Breite : 720 Pixel
Höhe : 400 Pixel
Bildseitenverhältnis : 16/9
Bildwiederholungsrate : 25,000 FPS
Auflösung : 24 bits
Colorimetry : 4:2:0
Scan type : Progressive
Bits/(Pixel*Frame) : 0.146
Stream size : 187 MiB (54)
verwendete Encoder-Bibliothek : XviD 1.1.2 (UTC 2006-11-01)

Audio #1
Format : AC-3
Format/Info : Audio Coding 3
Codec ID : 2000
Duration : 24min
Bitraten-Modus : Constant
Bitrate : 448 Kbps
Kanäle : 6 Kanäle
Channel positions : Front: L C R, Rear: L R, LFE
Samplingrate : 48,0 KHz
Stream size : 79,6 MiB (23)
Alignment : Split accross interleaves
Interleave, duration : 40 ms (1,00 video frame)
Interleave, preload duration : 500 ms

Audio #2
Format : AC-3
Format/Info : Audio Coding 3
Codec ID : 2000
Duration : 24min
Bitraten-Modus : Constant
Bitrate : 448 Kbps
Kanäle : 6 Kanäle
Channel positions : Front: L C R, Rear: L R, LFE
Samplingrate : 48,0 KHz
Stream size : 79,6 MiB (23)
Alignment : Split accross interleaves
Interleave, duration : 40 ms (1,00 video frame)
Interleave, preload duration : 500 ms

related torrents

Torrent name

health leech seeds Size
 

comments (0)

Main Menu