Action

HDC James Bond 007 Der Morgen stirbt nie 1997 HDTV 720p AC3 German XviD

  • Download 5x Faster
  • Download torrent
  • Direct Download
  • Rate this torrent +  |  -

Torrent info

Name:HDC James Bond 007 Der Morgen stirbt nie 1997 HDTV 720p AC3 German XviD

Total Size: 4.33 GB

Magnet: Magnet Link

Seeds: 0

Leechers: 0

Stream: Watch Online @ Movie4u

Last Updated: 2010-12-19 04:29:49 (Update Now)

Torrent added: 2008-11-09 04:34:59




Torrent Files List


James.Bond.007.-.Der.Morgen.stirbt.nie.1997.HDTV.720p.AC3.German.XviD.avi (Size: 4.33 GB) (Files: 1)

 James.Bond.007.-.Der.Morgen.stirbt.nie.1997.HDTV.720p.AC3.German.XviD.avi

4.33 GB
 

Announce URL: http://hdc.ath.cx/announce.php

Torrent description

.::HD-Cinema::. presents*:

James Bond 007 - Der Morgen Stirbt nie


Info:

Allgemein
Vollständiger Name : James.Bond.007.-.Der.Morgen.stirbt.nie.1997.HDTV.720p.AC3.German.XviD.avi
Format : AVI
Format/Info : Audio Video Interleave
Format profile : OpenDML
Dateigre : 4,33 GiB
Duration : 1h 55min
Gesamte Bitrate : 5 388 Kbps
Verwendetes Programm : VirtualDubMod 1.5.10.2 (build 2540/release)
verwendete Encoder-Bibliothek : VirtualDubMod build 2540/release

Video
Format : MPEG-4 Visual
Format profile : Streaming [email protected]
Format settings, BVOP : Ja
Format settings, QPel : Nein
Format settings, GMC : No warppoints
Format settings, Matrix : Default
Muxing mode : Packed bitstream
Codec ID : XVID
Codec ID/Hint : XviD
Duration : 1h 55min
Bitrate : 4 995 Kbps
Breite : 1 280 Pixel
Höhe : 544 Pixel
Bildseitenverhältnis : 2.35
Bildwiederholungsrate : 23,976 FPS
Auflösung : 24 bits
Colorimetry : 4:2:0
Scan type : Progressive
Bits/(Pixel*Frame) : 0.299
Stream size : 4,01 GiB (93)
verwendete Encoder-Bibliothek : XviD 1.1.0 (UTC 2005-11-22)

Audio
Format : AC-3
Format/Info : Audio Coding 3
Codec ID : 2000
Bitraten-Modus : Constant
Bitrate : 384 Kbps
Kanäle : 6 Kanäle
Channel positions : Front: L C R, Rear: L R, LFE
Samplingrate : 48,0 KHz
Stream size : 316 MiB (7)
Alignment : Split accross interleaves
Interleave, duration : 42 ms (1,00 video frame)


Beschreibung:

Medienmogul Elliott Carver (Jonathan Pryce) ist ein eiskalter Business-Hai, der am Weltfrieden zündelt, um die Auflage seiner Zeitung Der Morgen zu steigern. Als Herr eines Satellitensystems hat er Zugang zu jedem Bildschirm dieser Erde. Mit Hilfe seines für Radargeräte unsichtbaren Super-U-Bootes schürt er einen potenziellen Krieg zwischen China und Großbritannien, um dann im neurevolutionären Reich der Mitte exklusive Medienrechte zu erhalten. Eine solche Provokation kann sich der britische Geheimdienst nicht gefallen lassen und fährt schwere Geschütze auf: Man schickt James Bond (Pierce Brosnan) ins Rennen, der beste Mann in den Reihen des britischen Secret Service. Ausgestattet mit Qs (Desmond Llewelyn) neuen Gimmicks wirft sich Bond ins Geschehen, tatkräftig unterstützt von der Kollegin des chinesischen Geheimdienstes, Wai Lin (Michelle Yeoh), ein toughes und emanzipiertes Bond-Girl. Um an Carter heranzukommen, werden den beiden harte Prüfungen auferlegt.


THX to rsk 4UP

* it's an Antileech-Tracker (ALT)
visit http://hdc.ath.cx/

related torrents

Torrent name

health leech seeds Size
 


comments (0)

Main Menu