Thriller

Love Bites (2001) DvdRip Xvid {1337x} Noir

  • Download 5x Faster
  • Download torrent
  • Direct Download
  • Rate this torrent +  |  -
Love Bites (2001) DvdRip Xvid {1337x} Noir

Free and Direct Download with Usenet.nl 300GB+ free


Torrent info

Name:Love Bites (2001) DvdRip Xvid {1337x} Noir

Total Size: 713.98 MB

Magnet: Magnet Link

Seeds: 0

Leechers: 0

Stream: Watch Online @ Movie4u

Last Updated: 2015-09-12 03:19:33 (Update Now)

Torrent added: 2008-11-08 17:47:26





Torrent Files List


1337x.Org.txt (Size: 713.98 MB) (Files: 5)

 1337x.Org.txt

0.03 KB

 Love Bites (2001) [DvdRip] [Xvid] {1337x}-Noir.avi

708.60 MB

 Noir.nfo

4.84 KB

 Subs

  Love Bites (2001) [DvdRip] [Xvid] {1337x}-Noir.idx

51.49 KB

  Love Bites (2001) [DvdRip] [Xvid] {1337x}-Noir.sub

5.32 MB
 

tracker

leech seeds
 

Torrent description

Love Bites (2001) DvdRip Xvid {1337x} Noir preview 0

Screenshots

Love Bites (2001) DvdRip Xvid {1337x} Noir preview 1

Love Bites (2001) DvdRip Xvid {1337x} Noir preview 2

Love Bites (2001) DvdRip Xvid {1337x} Noir preview 3

Love Bites (2001) DvdRip Xvid {1337x} Noir preview 4
[code]


▓▓▓▓▓▓
▓█████▓ ▓▓▓▓
▓██████▓ ▓▓███▓
▓▓██████▓ ▓████▓▓▓▓▓▓
██████▓ ▓██▒█▓▓███▓▓ ▓▓▓▓▓▓▓▓▓▓▓▓▓
▓██▒████▓ ▓██▒█▓██████▓▓███▓███▓███▓▓
▓██▒▒████▓ ▓██▒███▒▒▒▒██▓████████████▓
▓██▒▒▒▒███▓ ▓██▒██▒▒▒▒▒▒███▒▒▒██▒█▒▒▒██▓▓
▓██▒▒██▒▒██▓▓██▒██▒▒█▒▒▒▒███████▒▒▒▒▒▒██▓
▓██▒▒███▒▒██▓██▒██▒█▓█▒▒▒██▒▒▒██▒▒██▒▒▒█▓
▓██▒▒████▒▒████▒██▒█▓█▒▒▒██▒▒▒██▒▒███▒██▓
▓██▒▒█▓███▒▒███▒██▒▒█▒▒▒▒██▒▒▒██▒▒██████▓
▓██▒▒█▓▓███▒▒██▒██▒▒▒▒▒▒▒██▒▒▒██▒▒██▓███▓
▓▓██▒▒█▓ ▓███▒▒█▒██▒▒▒▒▒▒▒███████▒▒██▓▓▓▓▓
▓▓███▒▒█▓ ▓███▒▒▒███▒▒▒▒▒██▓▓▓▓██▒▒██▓
▓████▒▒█▓ ▓███▒▒█████████▓▓ ▓██▒▒██▓
▓████▒▒█▓ ▓███▒█▓██████▓▓▓ ▓██████▓
▓███████▓ ▓▓████▓▓▓▓▓▓▓▓ ▓▓▓▓▓▓▓▓
▓▓▓▓▓▓▓▓▓ ▓▓▓▓▓




*********************
* Love Bites (2001) *
*********************

________________________
General Information |
________________________|
_______________________________________________________________
Type : Movie
Format : AVI
Format/Info : Audio Video Interleave
File size : 709Mb
Duration : 1h 36mn
Language : French
Source : Dvd NTSC
Subtitles : English
Genre : Horror | Mystery | Thriller
IMDB Link : http://www.imdb.com/title/tt0235606/
Rating : 5.3/10
_______________________________________________________________
________________________________________________________________
Video
Format : MPEG-4 Visual
Codec ID/Hint : XviD
Bit rate : 880 Kbps
Width : 624 pixels
Height : 272 pixels
Display aspect ratio : 2.35
Frame rate : 23.976 fps
Bits/(Pixel*Frame) : 0.216
Stream size : 608 MiB (86%)
_______________________________________________________________
Audio
Format : MPEG Audio
Codec ID/Hint : MP3
Bit rate mode : Variable
Bit rate : 132 Kbps
Minimum bit rate : 160 Kbps
Channel(s) : 2 channels
Sampling rate : 48.0 KHz
Stream size : 91.5 MiB (13%)
Writing library : LAME3.98.2
Encoding settings : ABR
_______________________________________________________________
________________
Description
________________
_______________________________________________________________
Antonio makes his living off others, sleeping at his friend\'s
health club, borrowing money, and crashing parties. But he
finds himself working overtime when he\'s hired by a wealthy
club owner Von Bulow hires him to track down the elusive
Jordan. All Antonio knows is that Jordan lives by the night,
but he soon finds that information about Jordan doesn\'t come
without a price.
_______________________________________________________________

___________________
Notes
___________________
_______________________________________________________________
Be aware People are starting to use my tag to create fake files
Make sure its a real genuine release from me, I have never and
will never do Cams,Telesyncs,Telecine or RAR files.Try to check
1337x.org to see if the file exist.

Fuck the fakers and enjoy my release.
_______________________________________________________________

___________________
Looking
___________________
_______________________________________________________________
Am looking for anybody who Wants to donate Direct or Line Audio
Pre Released R5\'s, Screeners, Dvds. Got anything else usefull?
Contact me at [email protected] or [email protected]
_______________________________________________________________
___________________
Post Information
___________________
_________________________________
Posted by............: Noir
Posted on............: 11/08/2008
_________________________________
[/code]

Love Bites (2001) DvdRip Xvid {1337x} Noir preview 5

Love Bites (2001) DvdRip Xvid {1337x} Noir preview 6

related torrents

Torrent name

health leech seeds Size
 

comments (0)

Main Menu