Asian

Safar 1970 Hindi DvD RiP XviD ErG

  • Download 5x Faster
  • Download torrent
  • Direct Download
  • Rate this torrent +  |  -
Safar 1970 Hindi DvD RiP XviD ErG

Free and Direct Download with Usenet 300GB+ free


Torrent info

Name:Safar 1970 Hindi DvD RiP XviD ErG

Total Size: 1.80 GB

Magnet: Magnet Link

Seeds: 0

Leechers: 0

Stream: Watch Online @ Movie4u

Last Updated: 0000-00-00 00:00:00 (Update Now)

Torrent added: 2008-11-08 16:39:15




Torrent Files List


Safar ~ 1970 ~ DvD RiP ~ XviD.avi (Size: 1.80 GB) (Files: 1)

 Safar ~ 1970 ~ DvD RiP ~ XviD.avi

1.80 GB
 

Announce URL:

Torrent description

Complete name :Safar ~ 1970 ~ DvD RiP ~ XviD ~ AC3 6
Format : AVI
Format/Info : Audio Video Interleave
Format profile : OpenDML
File size : 1.80 GiB
Duration : 2h 19mn
Overall bit rate : 1 852 Kbps
Writing application : AVI-Mux GUI 1.17.7, Aug 8 2006 20:59:17
Source : CCE

Video
Format : MPEG-4 Visual
Format profile : Streaming Video@L1
Format settings, BVOP : Yes
Format settings, QPel : No
Format settings, GMC : No warppoints
Format settings, Matrix : Default
Codec ID : XVID
Codec ID/Hint : XviD
Duration : 2h 19mn
Bit rate : 1 398 Kbps
Width : 648 pixels
Height : 480 pixels
Display aspect ratio : 4/3
Frame rate : 24.975 fps
Resolution : 24 bits
Colorimetry : 4:2:0
Scan type : Progressive
Bits/(Pixel*Frame) : 0.180
Stream size : 1.36 GiB (76%)
Writing library : XviD 1.2.0.dev47 (UTC 2006-11-01)

Audio
Format : AC-3
Format/Info : Audio Coding 3
Codec ID : 2000
Bit rate mode : Constant
Bit rate : 448 Kbps
Channel(s) : 6 channels
Channel positions : Front: L C R, Rear: L R, LFE
Sampling rate : 48.0 KHz
Stream size : 446 MiB (24%)
Alignment : Aligned on interleaves
Interleave, duration : 64 ms (1.60 video frames)
Interleave, preload duration : 192 ms
Title : VTS_08_1 T80 3_2ch 448Kbps DELAY 0ms

A MaJaa.NET Release

related torrents

Torrent name

health leech seeds Size
 

comments (0)

Main Menu