Drama

Paradise now avi

  • Download 5x Faster
  • Download torrent
  • Direct Download
  • Rate this torrent +  |  -
Paradise now avi

Anonymous and Direct Download 300GB+ free


Torrent info

Name:Paradise now avi

Total Size: 699.95 MB

Magnet: Magnet Link

Seeds: 11

Leechers: 21

Stream: Watch Online @ Movie4u

Last Updated: 2011-01-08 17:23:38 (Update Now)

Torrent added: 2008-11-08 14:31:50




Torrent Files List


Paradise now.avi (Size: 699.95 MB) (Files: 1)

 Paradise now.avi

699.95 MB
 

Announce URL: http://tracker.tntvillage.scambioetico.org:2710/announce

Torrent description

Paradise now,[Xvid - Ita Mp3][www.tntvillage.scambioetico.org]

Scheda del film

Titolo:Paradise now
Titolo originale:Paradise now
Nazionalità:Palestina
Anno:2005
Genere:Drammatico
Regia:Hany Abu-Assad
Produzione:Bero Beyer
Distribuzione:Lucky Red
Data di uscita:15 Ottobre 2005 (cinema)

Cast

Kais Nashef, Ali Suliman, Lubna Azabal, Amer Hlehel, Hiam Abbass, Ashraf Barhom



Scheda tecnica del DivX (Mediainfo)

General
Complete name : Paradise now.avi
Format : AVI
Format/Info : Audio Video Interleave
File size : 700 MiB
Duration : 1h 27mn
Overall bit rate : 1 117 Kbps
Writing application : VirtualDubMod 1.5.10.2 (build 2540/release)
Writing library : VirtualDubMod build 2540/release

Video
Format : MPEG-4 Visual
Format profile : Streaming [email protected]
Format settings, BVOP : Yes
Format settings, QPel : No
Format settings, GMC : No warppoints
Format settings, Matrix : Default
Codec ID : XVID
Codec ID/Hint : XviD
Duration : 1h 27mn
Bit rate : 971 Kbps
Width : 640 pixels
Height : 272 pixels
Display aspect ratio : 2.35
Frame rate : 25.000 fps
Resolution : 24 bits
Colorimetry : 4:2:0
Scan type : Progressive
Bits/(Pixel*Frame) : 0.223
Stream size : 608 MiB (87%)
Writing library : XviD 1.1.0 (UTC 2005-11-22)

Audio
Format : MPEG Audio
Format version : Version 1
Format profile : Layer 3
Codec ID : 55
Codec ID/Hint : MP3
Duration : 1h 27mn
Bit rate mode : Variable
Bit rate : 133 Kbps
Nominal bit rate : 128 Kbps
Channel(s) : 2 channels
Sampling rate : 48.0 KHz
Resolution : 16 bits
Stream size : 83.5 MiB (12%)
Alignment : Aligned on interleaves
Interleave, duration : 24 ms (0.60 video frame)
Interleave, preload duration : 489 ms
Writing library : LAME3.90.
Encoding settings : ABR

related torrents

Torrent name

health leech seeds Size

Threshold Paradise Now

0 2 86.00 MB 0
 


comments (0)

Main Menu