Drama

All the Presidents Men (1976) Opt MULTISUBS

  • Download 5x Faster
  • Download torrent
  • Direct Download
  • Rate this torrent +  |  -
All the Presidents Men (1976) Opt MULTISUBS

Free and Direct Download with Usenet 300GB+ free


Torrent info

Name:All the Presidents Men (1976) Opt MULTISUBS

Total Size: 724.28 MB

Magnet: Magnet Link

Seeds: 3

Leechers: 2

Stream: Watch Online @ Movie4u

Last Updated: 0000-00-00 00:00:00 (Update Now)

Torrent added: 2008-11-07 16:40:29




Torrent Files List


AA-Sample (Size: 724.28 MB) (Files: 19)

 AA-Sample

  AA-Sample-All the Presidents Men (1976))_Kuth.avi

10.76 MB

 All the Presidents Men (1976) Hoffman + Redford (MULTISUBS)_Kuth.avi

692.23 MB

 Info about this release.txt

4.73 KB

 Optional subtitles

  Blgarski.rar

1.49 MB

  Dansk.rar

1.41 MB

  Deutsch.rar

1.36 MB

  English.rar

1.52 MB

  Espanol.rar

1.35 MB

  Greek.rar

1.50 MB

  Hebrew.rar

1.47 MB

  Islenska.rar

1.42 MB

  Italiano.rar

1.28 MB

  Norsk.rar

1.36 MB

  Notes on subtitle files and burning of discs.txt

2.20 KB

  Polski.rar

1.57 MB

  Portugues.rar

1.33 MB

  Romanian.rar

1.57 MB

  Suominkillinen.rar

1.26 MB

  Svenska.rar

1.38 MB
 

Announce URL: http://tracker.publicbt.com/announce

Torrent description

All the President's Men (1976)

Optional subtitles in separate idx/sub files:
Bulgarian, Danish, English, Finnish, German, Greek, Hebrew, Icelandic, Italian, Norwegian, Polish, Portuguese, Romanian, Spanish, Swedish.
(Sorry, Dutch friends, your language was not on the DVD.)

With Dustin Hoffman and Robert Redford.

With subtitles, only a full DVD seems to remain on PB of this classic about one of the most dramatic political intrigues in newer history, winning 4 Oscars. So I made this new rip with multisubs.

My new ripping procedure now produces decent quality for such a long film compressed into just 700 MiB. I enclose a sample for ye weak in faith.

Widescreen DVDrip XviD 2-pass 720x384, original mono sound AC3.
Burn tested, runs well in both my standalone DivX players.

Format/Info : Audio Video Interleave
File size : 692 MiB
Duration : 2h 12mn
Overal bit rate : 730 Kbps

Video
Format : MPEG-4 Visual
Format profile : Streaming [email protected]
Format settings, BVOP : Yes
Format settings, QPel : No
Format settings, GMC : No warppoints
Format settings, Matrix : Default
Muxing mode : Packet Bitstream
Codec ID : XVID
Codec ID/Hint : XviD
Duration : 2h 12mn
Bit rate : 592 Kbps
Width : 720 pixels
Height : 384 pixels
Display aspect ratio : 1.875
Frame rate : 25.000 fps
Resolution : 8 bits
Colorimetry : 4:2:0
Scan type : Progressive
Bits/(Pixel*Frame) : 0.086
Stream size : 562 MiB
Writing library : XviD 1.2.0.dev47 (UTC 2006-11-01)

Audio
Format : MPEG Audio
Format version : Version 1
Format profile : Layer 3
Codec ID : 55
Codec ID/Hint : MP3
Duration : 2h 12mn
Bit rate mode : Constant
Bit rate : 128 Kbps
Minimum bit rate : 128 Kbps
Channel(s) : 2 channels
Sampling rate : 48.0 KHz
Resolution : 16 bits
Stream size : 121 MiB
Writing library : LAME3.97
Encoding settings : CBR

Source: PAL native (note that PAL/NTSC will give no problems for avi files).

Thanks to Kuthumi!

related torrents

Torrent name

health leech seeds Size
 

comments (0)

Main Menu