Anime - Other

AfterWorld Staffel 1 Folge 016 026 ADBT

  • Download 5x Faster
  • Download torrent
  • Direct Download
  • Rate this torrent +  |  -
AfterWorld Staffel 1 Folge 016 026 ADBT

Free and Direct Download with Usenet 300GB+ free


Torrent info

Name:AfterWorld Staffel 1 Folge 016 026 ADBT

Total Size: 1.35 GB

Magnet: Magnet Link

Seeds: 0

Leechers: 0

Stream: Watch Online @ Movie4u

Last Updated: 2015-09-26 13:31:38 (Update Now)

Torrent added: 2008-11-06 12:33:25




Torrent Files List


AfterWorld Staffel 1 - Folge 016-026 (Size: 1.35 GB) (Files: 11)

 AfterWorld Staffel 1 - Folge 016-026

  AfterWorld_Staffel_1_-_Folge_016_TV-Rip.avi

125.05 MB

  AfterWorld_Staffel_1_-_Folge_017_TV-Rip.avi

125.99 MB

  AfterWorld_Staffel_1_-_Folge_018_TV-Rip.avi

124.01 MB

  AfterWorld_Staffel_1_-_Folge_019_TV-Rip.avi

125.93 MB

  AfterWorld_Staffel_1_-_Folge_020_TV-Rip.avi

124.88 MB

  AfterWorld_Staffel_1_-_Folge_021_TV-Rip.avi

125.08 MB

  AfterWorld_Staffel_1_-_Folge_022_TV-Rip.avi

125.39 MB

  AfterWorld_Staffel_1_-_Folge_023_TV-Rip.avi

125.49 MB

  AfterWorld_Staffel_1_-_Folge_024_TV-Rip.avi

125.62 MB

  AfterWorld_Staffel_1_-_Folge_025_TV-Rip.avi

125.04 MB

  AfterWorld_Staffel_1_-_Folge_026_TV-Rip.avi

125.01 MB
 

tracker

leech seeds
 

Torrent description

Infos:

Vollständiger Name : [Requests]AfterWorld Staffel 1 - Folge 016-026
Format : AVI
Format/Info : Audio Video Interleave
Dateigre : 125 MiB
Duration : 11min
Gesamte Bitrate : 1500 Kbps
Verwendetes Programm : VirtualDubMod 1.5.10.2 (build 2540/release)
verwendete Encoder-Bibliothek : VirtualDubMod build 2540/release

Video
Format : MPEG-4 Visual
Format profile : Streaming [email protected]
Format settings, BVOP : Ja
Format settings, QPel : Nein
Format settings, GMC : No warppoints
Format settings, Matrix : Default
Codec ID : XVID
Codec ID/Hint : XviD
Duration : 11min
Bitrate : 1355 Kbps
Breite : 640 Pixel
Höhe : 352 Pixel
Bildseitenverhältnis : 16/9
Bildwiederholungsrate : 25.000 FPS
Auflösung : 8 bits
Colorimetry : 4:2:0
Scan type : Progressive
Bits/(Pixel*Frame) : 0.241
Stream size : 113 MiB (90)
verwendete Encoder-Bibliothek : XviD 1.2.0.dev47 (UTC 2006-11-01)

Audio
Format : MPEG Audio
Format version : Version 1
Format profile : Layer 3
Codec ID : 55
Codec ID/Hint : MP3
Duration : 11min
Bitraten-Modus : Variable
Bitrate : 131 Kbps
Minimum bit rate : 133 Kbps
Kanäle : 2 Kanäle
Samplingrate : 48.0 KHz
Auflösung : 16 bits
Stream size : 11.0 MiB (9)
Alignment : Aligned on interleaves
Interleave, duration : 24 ms (0.60 video frame)
Interleave, preload duration : 336 ms
verwendete Encoder-Bibliothek : LAME3.97b
Kodierungseinstellungen : ABR

Beschreibung:

In Afterworld geht es um das Leben auf der Erde, nachdem
durch einen unerklärlichen weltweiten Vorfall Technologie
nutzlos geworden und 99,9 Prozent der Bevölkerung
verschwunden ist.
Die Story verfolgt die Abenteuer von Russell Shoemaker,
der nach dem Vorfall in New York aufwacht und sich
plötzlich dazu gezwungen sieht, nach Seattle zu laufen
in der Hoffnung, dass seine Frau und seine Tochter die
Katastrophe überlebt haben.
Russells eigene erschütternde Reise, aus seiner
technologischen Abhängigkeit in die totale Autarkie,
spiegelt die Welt, die er auf seinem Weg entdeckt und
in der andere Überlebende die Gesellschaft auf merkwürdige
und überraschende Weise wiederaufbauen, wider. Indem er
Stück für Stück die Puzzlestücke des rätselhaften Vorfalls
zusammensetzt, ebnet Russell letztendlich der kühnen Zukunft
der Menschheit den Weg.

Audio: deutsch

related torrents

Torrent name

health leech seeds Size

CCS Folge 1 4 ADBT

0 0 998.37 MB 0
 

comments (0)

Main Menu