Adventure

Little Big Man (1970) Stereo MULTISUBS

  • Download 5x Faster
  • Download torrent
  • Direct Download
  • Rate this torrent +  |  -
Little Big Man (1970) Stereo MULTISUBS

Anonymous and free Direct Download 300GB+


Torrent info

Name:Little Big Man (1970) Stereo MULTISUBS

Total Size: 717.21 MB

Magnet: Magnet Link

Seeds: 0

Leechers: 0

Stream: Watch Online @ Movie4u

Last Updated: 2016-04-14 20:36:46 (Update Now)

Torrent added: 2008-11-05 12:34:42



VPN For Torrents

Torrent Files List


AA-Sample (Size: 717.21 MB) (Files: 16)

 AA-Sample

  AA-Sample- Little Big Man (1970)_Kuth.avi

11.60 MB

 Info about this release.txt

4.65 KB

 Little Big Man (1970) Dustin Hoffman (Stereo,MULTIISUBS)_Kuth.avi

693.12 MB

 Optional subtitles

  Dansk.rar

1.04 MB

  Deutsch.rar

1.07 MB

  English.rar

1.09 MB

  Espanol.rar

1.04 MB

  Francais.rar

1.04 MB

  Islenska.rar

1.10 MB

  Italiano.rar

1.06 MB

  Nederlands.rar

949.97 KB

  Norsk.rar

989.83 KB

  Notes on subtitle files and burning of discs.txt

2.20 KB

  Portugues.rar

1.09 MB

  Suomiseksi.rar

1.05 MB

  Svenska.rar

1.02 MB
 

tracker

leech seeds
 

Torrent description

Little Big Man (1970)

Optional subtitles in separate idx/sub files:
Danish, Dutch, English, Finnish, French, German, Icelandic, Italian, Norwegian, Portuguese, Spanish, Swedish

With Dustin Hoffman, Faye Dunaway.

In this classic, Dustin still holds the record for portraying the greatest age span of a single character, playing Jack Crabb from the age of 17 to 121. To obtain the voice of the old man, he sat in his dressing room and screamed at the top of his lungs for an hour before each take.

My new ripping procedure now produces decent quality for such a long film compressed into just 700 MiB. I enclose a sample for ye weak in faith.

Widescreen DVDrip XviD 2-pass 720x288, great stereo sound AC3.
Burn tested, runs well in both my standalone DivX players.


Format/Info : Audio Video Interleave
File size : 693 MiB
Duration : 2h 13mn
Overal bit rate : 725 Kbps

Video
Format : MPEG-4 Visual
Format profile : Streaming [email protected]
Format settings, BVOP : Yes
Format settings, QPel : No
Format settings, GMC : No warppoints
Format settings, Matrix : Default
Muxing mode : Packet Bitstream
Codec ID : XVID
Codec ID/Hint : XviD
Duration : 2h 13mn
Bit rate : 587 Kbps
Width : 720 pixels
Height : 288 pixels
Display aspect ratio : 2.500
Frame rate : 25.000 fps
Resolution : 8 bits
Colorimetry : 4:2:0
Scan type : Progressive
Bits/(Pixel*Frame) : 0.113
Stream size : 561 MiB
Writing library : XviD 1.2.0.dev47 (UTC 2006-11-01)

Audio
Format : MPEG Audio
Format version : Version 1
Format profile : Layer 3
Codec ID : 55
Codec ID/Hint : MP3
Duration : 2h 13mn
Bit rate mode : Constant
Bit rate : 128 Kbps
Minimum bit rate : 128 Kbps
Channel(s) : 2 channels
Sampling rate : 48.0 KHz
Resolution : 16 bits
Stream size : 122 MiB
Writing library : LAME3.97
Encoding settings : CBR

Source: PAL native (note that PAL/NTSC will give no problems for avi
files).


Thanks to Kuthumi!

related torrents

Torrent name

health leech seeds Size

Little Big Man 1970

0 0 4.14 GB 0

Little Big Man (1970)

0 0 668.65 MB 0
 


comments (0)

Main Menu