Anime - Other

The Place Promised In Our Early Days ADBT

  • Download 5x Faster
  • Download torrent
  • Direct Download
  • Rate this torrent +  |  -
The Place Promised In Our Early Days ADBT

Free and Direct Download with Usenet.nl 300GB+ free


Torrent info

Name:The Place Promised In Our Early Days ADBT

Total Size: 0.99 GB

Magnet: Magnet Link

Seeds: 0

Leechers: 0

Stream: Watch Online @ Movie4u

Last Updated: 2016-03-26 12:44:40 (Update Now)

Torrent added: 2008-11-04 12:33:57





Torrent Files List


The_Place_Promised_In_Our_Early_Days.divx (Size: 0.99 GB) (Files: 1)

 The_Place_Promised_In_Our_Early_Days.divx

0.99 GB
 

tracker

leech seeds
 

Torrent description

The Place Promised - In Our Early Days -Divx- Deutsch

In einer fiktiven Parallelwelt wird Japan nach dem Zweiten Weltkrieg zwischen der Japanischen Union und
den U.S.A. aufgeteilt. Die Freunde Hiroki, Takuya und Sayuri werden von einem mysteriösen riesigen Turm
auf der anderen Seite der Grenze in den Bann gezogen. Sie geben sich ein Versprechen: Sie werden ein
Flugzeug bauen und damit über die Grenze fliegen, um das Geheimnis des Turms zu lüften.
Als die junge Sayuri spurlos verschwindet stirbt der Plan der Jugendfreunde.

Jahre später steht das geteilte Japan wieder kurz vor einem Krieg - und Hiroki findet Sayuri wieder, die
seit ihrem Verschwinden im Koma liegt. Hiroki schmiedet einen Plan seine Freundin zu befreien.
Dass Sayuris Koma mit dem geheimnisvollen Turm verknüpft ist, weiss er noch nicht.
Sayuri wird zum Schlüssel, der die Tür zum Weltfrieden öffnen kann.

Vollständiger Name : C:Users3333DesktopThe Place Promised - In Our Early DaysThe_Place_Promised_In_Our_Early_Days.divx
Format : DivX
Format/Info : Hack of AVI
Dateigre : 1 017 MiB
Duration : 1h 26min
Gesamte Bitrate : 1 641 Kbps

Video
Format : MPEG-4 Visual
Format settings, BVOP : Ja
Format settings, QPel : Nein
Format settings, GMC : No warppoints
Format settings, Matrix : Default
Codec ID : DX50
Codec ID/Hint : DivX 5
Duration : 1h 26min
Bitrate : 1 503 Kbps
Breite : 720 Pixel
Höhe : 576 Pixel
Bildseitenverhältnis : 16/9
Bildwiederholungsrate : 25,000 FPS
Standard : PAL
Auflösung : 24 bits
Colorimetry : 4:2:0
Scan type : Progressive
Bits/(Pixel*Frame) : 0.145
Stream size : 932 MiB (92)
Titel : Video
verwendete Encoder-Bibliothek : DivX 2151

Audio
Format : MPEG Audio
Format version : Version 1
Format profile : Layer 3
Codec ID : 55
Codec ID/Hint : MP3
Duration : 1h 26min
Bitraten-Modus : Constant
Bitrate : 128 Kbps
Kanäle : 2 Kanäle
Samplingrate : 48,0 KHz
Auflösung : 16 bits
Stream size : 79,3 MiB (8)
Alignment : Split accross interleaves
Interleave, duration : 40 ms (1,00 video frame)
Interleave, preload duration : 500 ms
Titel : Audio


Audio: deutsch

related torrents

Torrent name

health leech seeds Size
 

comments (0)

Main Menu