Drama

Afterburn (1992) True Story XviD English

  • Download 5x Faster
  • Download torrent
  • Direct Download
  • Rate this torrent +  |  -
Afterburn (1992) True Story XviD English

Free and Direct Download with Usenet 300GB+ free


Torrent info

Name:Afterburn (1992) True Story XviD English

Total Size: 699.27 MB

Magnet: Magnet Link

Seeds: 0

Leechers: 0

Stream: Watch Online @ Movie4u

Last Updated: 2016-03-14 18:45:21 (Update Now)

Torrent added: 2008-11-03 16:38:03




Torrent Files List


Afterburn (1992) Laura Dern+Vincent Spano [The F-16 cover-up]_Kuth.avi (Size: 699.27 MB) (Files: 2)

 Afterburn (1992) Laura Dern+Vincent Spano [The F-16 cover-up]_Kuth.avi

699.27 MB

 Info about this release.txt

4.80 KB
 

tracker

leech seeds
 

Torrent description

Afterburn (1992)

http://www.imdb.com/title/tt0103626/

With Laura Dern, Vincent Spano and Robert Loggia

True story of the widow of a F-16 fighter pilot who managed to sue the U.S. Air Force and the powerful producer, General Dynamics, to clear her husband's good name as a pilot. Such a suit was considered impossible at the time.

This famous fighter plane had serious faults after the first flight in 1974. The plane was designed to withstand gravitational forces of indcredible 9 G, but the bundles of cables did not, as it turned out. A great number crashed during the first years, and the responsible parties tried to blame the electric malfunction on the pilots.

The quality of the DVD could have been better, as is often the case for these made-for-TV movies. But I did my best:

DVD-rip XviD 2-pass 656x464, original fullscreen, good stereo AC3.
Burn tested, runs well in both my standalone DivX players.

Format/Info : Audio Video Interleave
File size : 699 MiB
Duration : 1h 42mn
Overal bit rate : 953 Kbps

Video
Format : MPEG-4 Visual
Format profile : Streaming [email protected]
Format settings, BVOP : Yes
Format settings, QPel : No
Format settings, GMC : No warppoints
Format settings, Matrix : Default
Muxing mode : Packet Bitstream
Codec ID : XVID
Codec ID/Hint : XviD
Duration : 1h 42mn
Bit rate : 814 Kbps
Width : 656 pixels
Height : 464 pixels
Display aspect ratio : 1.414
Frame rate : 29.970 fps
Resolution : 8 bits
Colorimetry : 4:2:0
Scan type : Progressive
Bits/(Pixel*Frame) : 0.089
Stream size : 597 MiB
Writing library : XviD 1.2.0.dev47 (UTC 2006-11-01)

Audio
Format : MPEG Audio
Format version : Version 1
Format profile : Layer 3
Codec ID : 55
Codec ID/Hint : MP3
Duration : 1h 42mn
Bit rate mode : Constant
Bit rate : 128 Kbps
Minimum bit rate : 128 Kbps
Channel(s) : 2 channels
Sampling rate : 48.0 KHz
Resolution : 16 bits
Stream size : 93.9 MiB
Writing library : LAME3.97
Encoding settings : CBR

Source: NTSC native (note that PAL/NTSC will give no problems for avi files).

Thanks to Kuthumi!

related torrents

Torrent name

health leech seeds Size

True Story (2014) rar

0 0 729.31 MB 0
 

comments (0)

Main Menu