Drama

Das Laecheln der Sterne Deutsch 2008 Xvid mnvv2 ws

  • Download 5x Faster
  • Download torrent
  • Direct Download
  • Rate this torrent +  |  -

Torrent info

Name:Das Laecheln der Sterne Deutsch 2008 Xvid mnvv2 ws

Total Size: 695.49 MB

Magnet: Magnet Link

Seeds: 0

Leechers: 0

Stream: Watch Full Movie @ Movie4u

Last Updated: 2016-01-30 05:13:43 (Update Now)

Torrent added: 2008-11-03 12:37:54



VPN For Torrents

Torrent Files List


Das Laecheln der Sterne.avi (Size: 695.49 MB) (Files: 3)

 Das Laecheln der Sterne.avi

695.47 MB

 Info.txt

2.75 KB

 t-47465-1.jpg

11.95 KB
 

tracker

leech seeds
 

Torrent description

Das.Laecheln.der.Sterne.Deutsch.2008.Xvid
Das Laecheln der Sterne




German Title_____: Das Laecheln der Sterne
RLs DATE_________: 22.10.2008
CiNE DATE________: 16.10.2008

RUNTiME__________: ca.97 Min.
GENRE____________: Drama




PLOT

Als Adrienne (Diane Lane) von ihrem Mann verlassen
wird, bricht fr die 42-Jaehrige eine Welt zusammen.
Mit gebrochenem Herzen folgt sie der Bitte einer
Freundin, kurzfristig ihre kleine Pension in dem
Kuestendorf Rodanthe zu hueten, um dort Abstand zu
gewinnen. Fr das Wochenende hat sich nur Dr.
Flanner (Richard Gere) angemeldet. Nach seiner
Ankunft zieht ein Sturm herauf. Eine
schicksalhafte Begegnung, die
beide troestet.


Format : AVI
Format/Info : Audio Video Interleave
Dateigre : 695 MiB
Duration : 1h 33min
Gesamte Bitrate : 1041 Kbps
Verwendetes Programm : Nandub v1.0rc2
verwendete Encoder-Bibliothek : Nandub build 1853/release

Video
Format : MPEG-4 Visual
Format profile : Streaming [email protected]
Format settings, BVOP : Ja
Format settings, QPel : Nein
Format settings, GMC : No warpoints
Format settings, Matrix : Default
Codec ID : XVID
Codec ID/Hint : XviD
Duration : 1h 33min
Bitrate : 909 Kbps
Breite : 640 Pixel
Höhe : 288 Pixel
Bildseitenverhältnis : 2.222
Bildwiederholungsrate : 25.000 FPS
Auflösung : 8 bits
Colorimetry : 4:2:0
Scan type : Progressive
Bits/(Pixel*Frame) : 0.197
Stream size : 607 MiB
verwendete Encoder-Bibliothek : XviD 1.2.0SMP (UTC 2006-01-08)

Audio
Format : MPEG Audio
Format version : Version 1
Format profile : Layer 3
Codec ID : 55
Codec ID/Hint : MP3
Duration : 1h 33min
Bitraten-Modus : Variable
Bitrate : 120 Kbps
Nominal bit rate : 127 Kbps
Kanäle : 2 Kanäle
Samplingrate : 44.1 KHz
Auflösung : 16 bits
Stream size : 79.9 MiB
verwendete Encoder-Bibliothek : LAME3.90.
Kodierungseinstellungen : ABR

related torrents

Torrent name

health leech seeds Size
 


comments (0)

Main Menu

 

script data-cfasync="false" src="//d2ghscazvn398x.cloudfront.net/?cshgd=690275">