Asian

ROCK N ROLL (MALAYALAM) 2007 ^^LTM^^

  • Download 5x Faster
  • Download torrent
  • Direct Download
  • Rate this torrent +  |  -
ROCK N ROLL (MALAYALAM) 2007 ^^LTM^^

Free and Direct Download with Usenet.nl 300GB+ free


Torrent info

Name:ROCK N ROLL (MALAYALAM) 2007 ^^LTM^^

Total Size: 829.05 MB

Magnet: Magnet Link

Seeds: 0

Leechers: 1

Stream: Watch Online @ Movie4u

Last Updated: 2015-04-20 06:04:49 (Update Now)

Torrent added: 2008-11-03 12:37:50





Torrent Files List


ROCK 'N' ROLL [2007] ^^LTM^^.avi (Size: 829.05 MB) (Files: 2)

 ROCK 'N' ROLL [2007] ^^LTM^^.avi

829.05 MB

 ROCK N ROLL.nfo

3.75 KB
 

tracker

leech seeds
 

Torrent description



^^^^^^^^^^^^^^^^^^^^^^^^^^^^^^^^^^^^^^^^^^^^^^^^^^^^^^^^^^^^^^^^^^^^^^^
^^^^^^^^^^^^^^^^^^^^^^^^^^^^^^^^^^^^^^^^^^^^^^^^^^^^^^^^^^^^^^^^^^^^^^^
^^^^^^^^^^^^^^^^^^^^^^^^^^^^^^^^^^^^^^^^^^^^^^^^^^^^^^^^^^^^^^^^^^^^^^^
^^^^^^^^^^^^^^^^^^^^^^^^^^^^^^^^^^^^^^^^^^^^^^^^^^^^^^^^^^^^^^^^^^^^^^^



ROCK'N'ROLL (MALAYALAM MOVIE) [2007]


Cast : Mohanlal, Lakshmi Rai, Mukesh, Rehman,...

Director : Renjith

Music : Vidhyasagar

Producer : P.N. Venugopal

Presentation : Moserbaer

Uploader : ^^LTM^^

-----------------------------------------------------------------------

File size : 829 MiB
Duration : 2h 15mn
Overall bit rate : 853 Kbps

Video
Format : MPEG-4 Visual
Format settings, BVOP : Yes
Format settings, QPel : No
Format settings, GMC : No warppoints
Format settings, Matrix : Default
Muxing mode : Packed bitstream
Codec ID : DX50
Codec ID/Hint : DivX 5
Duration : 2h 15mn
Bit rate : 680 Kbps
Width : 444 pixels
Height : 204 pixels
Display aspect ratio : 2.2
Frame rate : 25.000 fps
Resolution : 24 bits
Colorimetry : 4:2:0
Scan type : Progressive
Bits/(Pixel*Frame) : 0.300
Stream size : 661 MiB (80%)
Writing library : DivX 2676

Audio
Format : MPEG Audio
Format version : Version 1
Format profile : Layer 3
Codec ID : 55
Codec ID/Hint : MP3
Duration : 2h 15mn
Bit rate mode : Constant
Bit rate : 160 Kbps
Channel(s) : 2 channels
Sampling rate : 48.0 KHz
Resolution : 16 bits
Stream size : 156 MiB (19%)
Alignment : Aligned on interleaves
Interleave, duration : 43 ms (1.07 video frame)
Interleave, preload duration : 408 ms

related torrents

Torrent name

health leech seeds Size
 

comments (0)

Main Menu