Thriller

Traitor (2008) DvdRip H 264 {1337x} Noir

  • Download 5x Faster
  • Download torrent
  • Direct Download
  • Rate this torrent +  |  -
Traitor (2008) DvdRip H 264 {1337x} Noir

Anonymous and Direct Download 300GB+ free


Torrent info

Name:Traitor (2008) DvdRip H 264 {1337x} Noir

Total Size: 700.72 MB

Magnet: Magnet Link

Seeds: 1

Leechers: 2

Stream: Watch Online @ Movie4u

Last Updated: 2010-09-24 14:25:31 (Update Now)

Torrent added: 2008-11-03 00:49:01




Torrent Files List


1337x.Org.txt (Size: 700.72 MB) (Files: 3)

 1337x.Org.txt

0.03 KB

 Noir.nfo

5.41 KB

 Traitor (2008) [DvdRip] [H.264] {1337x}-Noir.avi

700.71 MB
 

Announce URL: http://genesis.1337x.org:1337/announce

Torrent description

Traitor (2008) DvdRip H 264 {1337x} Noir preview 0

Screenshots

Traitor (2008) DvdRip H 264 {1337x} Noir preview 1

Traitor (2008) DvdRip H 264 {1337x} Noir preview 2

Traitor (2008) DvdRip H 264 {1337x} Noir preview 3

Traitor (2008) DvdRip H 264 {1337x} Noir preview 4
[code]


▓▓▓▓▓▓
▓█████▓ ▓▓▓▓
▓██████▓ ▓▓███▓
▓▓██████▓ ▓████▓▓▓▓▓▓
██████▓ ▓██▒█▓▓███▓▓ ▓▓▓▓▓▓▓▓▓▓▓▓▓
▓██▒████▓ ▓██▒█▓██████▓▓███▓███▓███▓▓
▓██▒▒████▓ ▓██▒███▒▒▒▒██▓████████████▓
▓██▒▒▒▒███▓ ▓██▒██▒▒▒▒▒▒███▒▒▒██▒█▒▒▒██▓▓
▓██▒▒██▒▒██▓▓██▒██▒▒█▒▒▒▒███████▒▒▒▒▒▒██▓
▓██▒▒███▒▒██▓██▒██▒█▓█▒▒▒██▒▒▒██▒▒██▒▒▒█▓
▓██▒▒████▒▒████▒██▒█▓█▒▒▒██▒▒▒██▒▒███▒██▓
▓██▒▒█▓███▒▒███▒██▒▒█▒▒▒▒██▒▒▒██▒▒██████▓
▓██▒▒█▓▓███▒▒██▒██▒▒▒▒▒▒▒██▒▒▒██▒▒██▓███▓
▓▓██▒▒█▓ ▓███▒▒█▒██▒▒▒▒▒▒▒███████▒▒██▓▓▓▓▓
▓▓███▒▒█▓ ▓███▒▒▒███▒▒▒▒▒██▓▓▓▓██▒▒██▓
▓████▒▒█▓ ▓███▒▒█████████▓▓ ▓██▒▒██▓
▓████▒▒█▓ ▓███▒█▓██████▓▓▓ ▓██████▓
▓███████▓ ▓▓████▓▓▓▓▓▓▓▓ ▓▓▓▓▓▓▓▓
▓▓▓▓▓▓▓▓▓ ▓▓▓▓▓




******************
* Traitor (2008) *
******************

________________________
General Information |
________________________|
_______________________________________________________________
Type : Movie
Format : AVI
Format/Info : Audio Video Interleave
File size : 700Mb
Duration : 1h 54mn
Language : English
Source : Dvd NTSC
Subtitles : English (Hardcoded) When needed
Genre : Drama | Thriller
IMDB Link : http://www.imdb.com/title/tt0988047/
Rating : 7.4/10
_______________________________________________________________
________________________________________________________________
Video
Format : AVC
Format/Info : Advanced Video Codec
Format profile : [email protected]
Codec ID : H264
Bit rate : 731 Kbps
Width : 608 pixels
Height : 336 pixels
Display aspect ratio : 16/9
Frame rate : 23.976 fps
Bits/(Pixel*Frame) : 0.149
Stream size : 597 MiB (85%)
_______________________________________________________________
Audio
Format : MPEG Audio
Codec ID/Hint : MP3
Bit rate mode : Variable
Bit rate : 117 Kbps
Minimum bit rate : 128 Kbps
Channel(s) : 2 channels
Sampling rate : 48.0 KHz
Stream size : 93.7 MiB (13%)
Writing library : LAME3.98
Encoding settings : ABR
_______________________________________________________________
________________
Description
________________
_______________________________________________________________
Samir Horn (Don Cheadle), a devout American Muslim, and a
former U.S. Army Special Forces expert in explosives, has
been mysteriously showing up on the FBI\'s radar for being
in the area of terrorist bombings. FBI agent Roy Clayton
(Guy Pearce) heads up a task force investigation to link
Horn to these bombings. Clayton is able to question Horn
after he was arrested in Yemen for attempting to sell
explosives to an Islamic terrorist group. The terrorists
break out of prison and take Horn with them. With the help
of Max Archer (Neal McDonough), Clayton is able to link Horn
to a bombing of an American Consulate in Nice, and a failed
police raid to capture his top terrorist contact in London.
Clayton has been pursuing Horn around the world and has
tracked him to the United States. Clayton must capture Horn
before he strikes his next target.
_______________________________________________________________

___________________
Notes
___________________
_______________________________________________________________
Be aware People are starting to use my tag to create fake files
Make sure its a real genuine release from me, I have never and
will never do Cams,Telesyncs,Telecine or RAR files.Try to check
1337x.org to see if the file exist.

Fuck the fakers and enjoy my release.
_______________________________________________________________

___________________
Looking
___________________
_______________________________________________________________
Am looking for anybody who Wants to donate Direct or Line Audio
Pre Released R5\'s, Screeners, Dvds. Got anything else usefull?
Contact me at [email protected] or [email protected]
_______________________________________________________________
___________________
Post Information
___________________
_________________________________
Posted by............: Noir
Posted on............: 11/03/2008
_________________________________
[/code]

Traitor (2008) DvdRip H 264 {1337x} Noir preview 5

Traitor (2008) DvdRip H 264 {1337x} Noir preview 6

related torrents

Torrent name

health leech seeds Size
 


comments (0)

Main Menu