Action

Angel of Vengeance (1993) DvdRip Xvid {1337x} Noir

  • Download 5x Faster
  • Download torrent
  • Direct Download
  • Rate this torrent +  |  -
Angel of Vengeance (1993) DvdRip Xvid {1337x} Noir

Free and Direct Download with Usenet 300GB+ free


Torrent info

Name:Angel of Vengeance (1993) DvdRip Xvid {1337x} Noir

Total Size: 705.79 MB

Magnet: Magnet Link

Seeds: 0

Leechers: 0

Stream: Watch Online @ Movie4u

Last Updated: 2012-08-23 21:20:05 (Update Now)

Torrent added: 2008-11-02 04:11:56




Torrent Files List


Noir.nfo (Size: 705.79 MB) (Files: 3)

 Noir.nfo

5.38 KB

 Angel of Vengeance (1993) [DvdRip] [Xvid] {1337x}-Noir.avi

705.78 MB

 1337x.Org.txt

0.03 KB
 

Announce URL:

Torrent description

Angel of Vengeance (1993) DvdRip Xvid {1337x} Noir preview 0

Screenshots

Angel of Vengeance (1993) DvdRip Xvid {1337x} Noir preview 1

Angel of Vengeance (1993) DvdRip Xvid {1337x} Noir preview 2

Angel of Vengeance (1993) DvdRip Xvid {1337x} Noir preview 3

Angel of Vengeance (1993) DvdRip Xvid {1337x} Noir preview 4
[code]
▓▓▓▓▓▓
▓█████▓ ▓▓▓▓
▓██████▓ ▓▓███▓
▓▓██████▓ ▓████▓▓▓▓▓▓
██████▓ ▓██▒█▓▓███▓▓ ▓▓▓▓▓▓▓▓▓▓▓▓▓
▓██▒████▓ ▓██▒█▓██████▓▓███▓███▓███▓▓
▓██▒▒████▓ ▓██▒███▒▒▒▒██▓████████████▓
▓██▒▒▒▒███▓ ▓██▒██▒▒▒▒▒▒███▒▒▒██▒█▒▒▒██▓▓
▓██▒▒██▒▒██▓▓██▒██▒▒█▒▒▒▒███████▒▒▒▒▒▒██▓
▓██▒▒███▒▒██▓██▒██▒█▓█▒▒▒██▒▒▒██▒▒██▒▒▒█▓
▓██▒▒████▒▒████▒██▒█▓█▒▒▒██▒▒▒██▒▒███▒██▓
▓██▒▒█▓███▒▒███▒██▒▒█▒▒▒▒██▒▒▒██▒▒██████▓
▓██▒▒█▓▓███▒▒██▒██▒▒▒▒▒▒▒██▒▒▒██▒▒██▓███▓
▓▓██▒▒█▓ ▓███▒▒█▒██▒▒▒▒▒▒▒███████▒▒██▓▓▓▓▓
▓▓███▒▒█▓ ▓███▒▒▒███▒▒▒▒▒██▓▓▓▓██▒▒██▓
▓████▒▒█▓ ▓███▒▒█████████▓▓ ▓██▒▒██▓
▓████▒▒█▓ ▓███▒█▓██████▓▓▓ ▓██████▓
▓███████▓ ▓▓████▓▓▓▓▓▓▓▓ ▓▓▓▓▓▓▓▓
▓▓▓▓▓▓▓▓▓ ▓▓▓▓▓




*****************************
* Angel of Vengeance (1993) *
*****************************

________________________
General Information |
________________________|
_______________________________________________________________
Type : Movie
Format : AVI
Format/Info : Audio Video Interleave
File size : 706Mb
Duration : 1h 29mn
Language : Cantonese
Source : Dvd NTSC
Subtitles : English (Hardcoded)
Genre : Action
IMDB Link : http://www.imdb.com/title/tt0121546/
Rating : 2.8/10
_______________________________________________________________
________________________________________________________________
Video
Format : MPEG-4 Visual
Codec ID/Hint : XviD
Bit rate : 986 Kbps
Width : 608 pixels
Height : 336 pixels
Display aspect ratio : 16/9
Frame rate : 23.976 fps
Bits/(Pixel*Frame) : 0.201
Stream size : 634 MiB (90%)
_______________________________________________________________
Audio
Format : MPEG Audio
Codec ID/Hint : MP3
Bit rate mode : Variable
Bit rate : 99.3 Kbps
Minimum bit rate : 128 Kbps
Channel(s) : 2 channels
Sampling rate : 48.0 KHz
Stream size : 63.8 MiB (9%)
Writing library : LAME3.98
Encoding settings : ABR
_______________________________________________________________
________________
Description
________________
_______________________________________________________________
Robert Lau directs the widely panned cheapie exploitation
flick about kung-fu and sex slaves. Japanese born Hong Kong
martial arts star Yukari Oshima plays Lori, a street-wise
lass whose sister was kidnapped and ushered away to a remote
brothel. The culprit is the by notorious slave-runner Wang Pan
(Chung Fat) who also harried Lori\'s father into suicide when
she was a child. Needless to say, she wants the creep dead.
Unfortunately, Lori cannot overpower the swarm of burly
bodyguards surrounding the mobster, in spite of her formable
fighting prowess. She is given harbor by kindly grad student
Betty Chien who is studying brothels. Her problem is that, as
a woman, she cannot enter such an establishment to do the
necessary research. When interviewing frequent clients fails,
she decides to dress as a guy and see for herself. There she
learns more than she bargained for
_______________________________________________________________

___________________
Notes
___________________
_______________________________________________________________
Be aware People are starting to use my tag to create fake files
Make sure its a real genuine release from me, I have never and
will never do Cams,Telesyncs,Telecine or RAR files.Try to check
1337x.org to see if the file exist.

Fuck the fakers and enjoy my release.
_______________________________________________________________

___________________
Looking
___________________
_______________________________________________________________
Am looking for anybody who Wants to donate Direct or Line Audio
Pre Released R5\'s, Screeners, Dvds. Got anything else usefull?
Contact me at [email protected] or [email protected]
_______________________________________________________________
___________________
Post Information
___________________
_________________________________
Posted by............: Noir
Posted on............: 11/02/2008
_________________________________
[/code]

Angel of Vengeance (1993) DvdRip Xvid {1337x} Noir preview 5

Angel of Vengeance (1993) DvdRip Xvid {1337x} Noir preview 6

related torrents

Torrent name

health leech seeds Size
 

comments (0)

Main Menu