Ranma 1/2

Ranma 1 2 Movies 1+2

  • Download 5x Faster
  • Download torrent
  • Direct Download
  • Rate this torrent +  |  -
Ranma 1 2 Movies 1+2

Free and Direct Download with Usenet.nl 300GB+ free


Torrent info

Name:Ranma 1 2 Movies 1+2

Total Size: 2.00 GB

Magnet: Magnet Link

Seeds: 0

Leechers: 0

Stream: Watch Online @ Movie4u

Last Updated: 2016-05-21 04:15:30 (Update Now)

Torrent added: 2008-11-01 16:33:23





Torrent Files List


#1 Ranma - Big Troube InNekonron,China.OGG.ogm (Size: 2.00 GB) (Files: 2)

 #1 Ranma - Big Troube InNekonron,China.OGG.ogm

1.04 GB

 Ranma½ Nihao My Concubine German.avi

976.84 MB
 

tracker

leech seeds
 

Torrent description

1.Film
Das chinesische Mädchen Lychee und ihr Elefant Jasmin sind auf der Suche nach einem gewissen Happsai
und finden ihn auch bei Ranma und seinen Freunden. Bevor Lychee jedoch klarmachen kann, was sie von Happsai will,
wird Akane von einem geheimnisvollen Kampfsportmeister auf ein fliegendes Schiff entführt.
Es stellt sich heraus, dass Happsai, als er in seiner Jugend in China umherzog, um Kenp zu lernen,
eine heilige Zeremonie der sieben Kampfsport-Glücksgötter störte, um das Mädchen, das dabei geopfert werden sollte,
zu retten. Er stahl die Hälfte der Schriftrolle des Glücks und gab sie an ein Mädchen weiter, dem er versprach,
eines Tages werde ein Prinz kommen, um sie zu heiraten. Dieses Mädchen war Lychees Grossmutter.
Akane wurde nur durch ein Missgeschick von diesem Prinzen entführt: Sie hatte zufällig die Rolle in der Hand, als das Schiff auftauchte.
Ranma und seine Freunde entschliessen sich also, nach Nekonron, dem Sitz der sieben Kampfsport-Glücksgötter,
zu gehen, um Akane zurückzuholen. Auf dem Weg treffen sie wieder auf Lychee, die ihren Prinzen zurückerobern will.
Aber um zu Meister Kirin, dem Anführer der sieben Kamfpsport-Glücksgötter zu gelangen,
müssen sie erst mal an diesen sieben Göttern selbst vorbei...

2.Film
Ranma und die ganze Mannschaft machen auf einer einsamen Insel Urlaub. Doch der für sie untypische Frieden hält nicht lange an:
Ein Mädchen nach dem anderen wird wortwörtlich vom Erdboden verschluckt, zurück bleibt nur ein Pfirsich! Der Schuldige ist schnell gefunden:
Prinz Tma - Meister der Illusionsmagie und jetzt auf der Suche nach einer ihm würdigen Braut.
Ranma und die hinterbliebenen Männer starten eine Rettungsaktion, bei der es nicht nur um die Frauen geht, sondern auch um eine Substanz,
die aus Ranma wieder einen richtigen Jungen machen könnte.


Allgemein
Vollständiger Name : D:Ranma Movies 1+2#1 Ranma - Big Troube InNekonron,China.OGG.ogm
Format : OGG
Dateigre : 1,04 GiB
Duration : 1h 14min
Gesamte Bitrate : 2 008 Kbps
Verwendetes Programm : Made with BeSweet v1.5b25

Video
Format : MPEG-4 Visual
Codec ID : XVID
Codec ID/Hint : XviD
Breite : 640 Pixel
Höhe : 480 Pixel
Bildseitenverhältnis : 4/3
Bildwiederholungsrate : 25,000 FPS
Sprache : hauptfilm

Audio #1
Format : Vorbis
Format settings, Floor : 1
Duration : 1h 14min
Kanäle : 2 Kanäle
Samplingrate : 48,0 KHz
Replay gain : 1,94 dB
Sprache : deutsch

Audio #2
Format : Vorbis
Format settings, Floor : 1
Duration : 1h 14min
Kanäle : 2 Kanäle
Samplingrate : 48,0 KHz
Replay gain : 4,00 dB
Sprache : japanisch

Text
Format : Subrip
Sprache : deutsch

Kapitel
01 : 00:00:00.000 Chapter 1
02 : 00:00:13.440 Chapter 2
03 : 00:04:45.320 Chapter 3
04 : 00:12:18.400 Chapter 4
05 : 00:17:47.600 Chapter 5
06 : 00:24:52.040 Chapter 6
07 : 00:30:41.960 Chapter 7
08 : 00:35:08.720 Chapter 8
09 : 00:43:12.240 Chapter 9
10 : 00:49:05.440 Chapter 10
11 : 00:54:01.320 Chapter 11
12 : 01:00:29.200 Chapter 12
13 : 01:06:21.280 Chapter 13
14 : 01:10:40.760 Chapter 14

Allgemein
Vollständiger Name : D:Ranma Movies 1+2Ranma Nihao My Concubine German.avi
Format : AVI
Format/Info : Audio Video Interleave
Dateigre : 977 MiB
Duration : 59min
Gesamte Bitrate : 2 288 Kbps

Video
Format : MPEG-4 Visual
Format settings, BVOP : Ja
Format settings, QPel : Nein
Format settings, GMC : No warppoints
Format settings, Matrix : Default
Muxing mode : Packet Bitstream
Codec ID : DX50
Codec ID/Hint : DivX 5
Duration : 59min
Bitrate : 2 150 Kbps
Breite : 640 Pixel
Höhe : 480 Pixel
Bildseitenverhältnis : 4/3
Bildwiederholungsrate : 25,000 FPS
Auflösung : 24 bits
Colorimetry : 4:2:0
Scan type : Progressive
Bits/(Pixel*Frame) : 0.280
Stream size : 918 MiB (94)
verwendete Encoder-Bibliothek : DivX 6.0.0 (UTC 2005-06-15)

Audio
Format : MPEG Audio
Format version : Version 1
Format profile : Layer 3
Codec ID : 55
Codec ID/Hint : MP3
Duration : 59min
Bitraten-Modus : Constant
Bitrate : 128 Kbps
Kanäle : 2 Kanäle
Samplingrate : 44,1 KHz
Auflösung : 16 bits
Video0 Verzögerung : 26ms
Stream size : 54,7 MiB (6)
Alignment : Split accross interleaves
Interleave, duration : 40 ms (1,00 video frame)
Titel : Audio Stream


http://h-n-h.ath.cx

related torrents

Torrent name

health leech seeds Size

Ranma movies

0 0 1.86 GB 0
 

comments (0)

Main Menu