Asian

Bujjigadu 1CD Dvd Rip x264 avi

  • Download 5x Faster
  • Download torrent
  • Direct Download
  • Rate this torrent +  |  -
Bujjigadu 1CD Dvd Rip x264 avi

Anonymous and Direct Download 300GB+ free


Torrent info

Name:Bujjigadu 1CD Dvd Rip x264 avi

Total Size: 704.45 MB

Magnet: Magnet Link

Seeds: 0

Leechers: 0

Stream: Watch Online @ Movie4u

Last Updated: 0000-00-00 00:00:00 (Update Now)

Torrent added: 2008-10-31 08:36:02




Torrent Files List


Bujjigadu.1CD.Dvd.Rip.x264.avi (Size: 704.45 MB) (Files: 1)

 Bujjigadu.1CD.Dvd.Rip.x264.avi

704.45 MB
 

Announce URL: http://ictorrent.com:2710/000005ec576f1a0945850b0be90382be/announce

Torrent description

Cast : Prabhas,Trisha,mohan Babu

Producer: K.S. Rama Rao

Director: Puri Jagannadh


Screenplay: Puri Jagannadh

Story: Puri Jagannadh

Dialogue: Puri Jagannadh

Editor: M.R. Varma

Music: Sandeep Chowtha

Lyrics: Kandikonda & Bhaskarabhatla

Cinematography: Shyam K. Naidu

Art Director: Chinna

Action Directors: Vijayan

Background Music: Sandeep Chowta



Synopsis:

Bujji (Prabhas) and Chitti (Trisha Krishnan) are inseparable childhood friends. But when an unfortunate altercation leads to a fissure between the two, Chitti asks Bujji not to meet her for 12 years. She does, however, promise to marry him at the end of the lengthy hiatus, leaving Bujji but a glimmer of hope. After half-heartedly agreeing to her harsh terms, the forlorn Bujji leaves home, the pain of living in Visakhapatnam without seeing Chitti too much to bear. He winds up in Chennai, hence the tagline, Made in Chennai.

He spends those dozen years in Chennai presumably like a 'goonda', as he is shown beating up people. Also, he spouts Tamil dialogues now and then, and is a great fan of Rajnikanth.

When Bujji returns after 12 years, he foolishly beats up cops in mufti, and lands in jail. In jail, he encounters the sons of Machi Reddy (Kota Srinivasa Rao), who give him Rs 10,000,000 to finish off Sivanna (Mohan Babu). But when Bujji tires to kill Sivanna, he is injured and treated in Sivanna's house. Only then does he learn that his long lost love, Chitti, is Sivanna's sister. Chitti is studying in London and her family is living in Hyderabad. She sends her sister (Sanjana) to contact Bujji. What he will do next forms rest of the story.

Media Info :

General :

Complete name : Bujjigadu.1CD.Dvd.Rip.x264.avi
Format : AVI
Format/Info : Audio Video Interleave
Format profile : OpenDML
File size : 704 MiB
Duration : 2h 26mn
Overall bit rate : 671 Kbps
Writing application : AVI-Mux GUI 1.17.7, Aug 8 2006 20:59:17

Video :

Format : MPEG-4 Visual
Format profile : Streaming [email protected]
Format settings, BVOP : Yes
Format settings, QPel : No
Format settings, GMC : No warppoints
Format settings, Matrix : Default
Muxing mode : Packet Bitstream
Codec ID : XVID
Codec ID/Hint : XviD
Duration : 2h 26mn
Bit rate : 534 Kbps
Width : 640 pixels
Height : 256 pixels
Display aspect ratio : 2.500
Frame rate : 23.976 fps
Resolution : 8 bits
Colorimetry : 4:2:0
Scan type : Progressive
Bits/(Pixel*Frame) : 0.136
Stream size : 561 MiB (80%)
Writing library : XviD 1.0.3 (UTC 2004-12-20)

Audio :

Format : MPEG Audio
Format version : Version 1
Format profile : Layer 3
Codec ID : 55
Codec ID/Hint : MP3
Duration : 2h 26mn
Bit rate mode : Constant
Bit rate : 128 Kbps
Channel(s) : 2 channels
Sampling rate : 48.0 KHz
Resolution : 16 bits
Stream size : 134 MiB (19%)
Alignment : Aligned on interleaves
Interleave, duration : 24 ms (0.58 video frame)
Interleave, preload duration : 7200 ms

related torrents

Torrent name

health leech seeds Size
 


comments (0)

Main Menu