Asian

!! DesiNeedz Com Golmal Rerurns 2008 1CD PDVD RIP DesiNeedz E SUB DON Team DUS

  • Download 5x Faster
  • Download torrent
  • Direct Download
  • Rate this torrent +  |  -
!! DesiNeedz Com Golmal Rerurns 2008 1CD PDVD RIP DesiNeedz E SUB DON Team DUS

Free and Direct Download with Usenet.nl 300GB+ free


Torrent info

Name:!! DesiNeedz Com Golmal Rerurns 2008 1CD PDVD RIP DesiNeedz E SUB DON Team DUS

Total Size: 698.06 MB

Magnet: Magnet Link

Seeds: 0

Leechers: 1

Stream: Watch Online @ Movie4u

Last Updated: 2016-01-30 06:18:42 (Update Now)

Torrent added: 2008-10-31 04:34:32





Torrent Files List


Golmal Rerurns 2008 ~ 1CD PDVD RIP ~ E-SUB ~ Jay78 ~ Team DUS.avi (Size: 698.06 MB) (Files: 2)

 Golmal Rerurns 2008 ~ 1CD PDVD RIP ~ E-SUB ~ Jay78 ~ Team DUS.avi

697.97 MB

 Golmal Rerurns 2008 ~ 1CD PDVD RIP ~ E-SUB ~ Jay78 ~ Team DUS.srt

93.58 KB
 

tracker

leech seeds
 

Torrent description

Golmal Rerurns 2008 ~ 1CD PDVD RIP ~ E-SUB ~ DON Team DUS



Screens :

!! DesiNeedz Com  Golmal Rerurns 2008 1CD PDVD RIP DesiNeedz E SUB DON Team DUS preview 0

!! DesiNeedz Com  Golmal Rerurns 2008 1CD PDVD RIP DesiNeedz E SUB DON Team DUS preview 1

!! DesiNeedz Com  Golmal Rerurns 2008 1CD PDVD RIP DesiNeedz E SUB DON Team DUS preview 2

Video
Format : MPEG-4 Visual
Format profile : Streaming [email protected]
Format settings, BVOP : Yes
Format settings, QPel : No
Format settings, GMC : No warppoints
Format settings, Matrix : Default
Codec ID : XVID
Codec ID/Hint : XviD
Duration : 2h 10mn
Bit rate : 614 Kbps
Width : 640 pixels
Height : 224 pixels
Display aspect ratio : 2.857
Frame rate : 29.970 fps
Resolution : 8 bits
Colorimetry : 4:2:0
Scan type : Progressive
Bits/(Pixel*Frame) : 0.143
Stream size : 574 MiB (82%)
Writing library : XviD 1.2.0.dev47 (UTC 2006-11-01)


Audio
Format : MPEG Audio
Format version : Version 1
Format profile : Layer 3
Codec ID : 55
Codec ID/Hint : MP3
Bit rate mode : Constant
Bit rate : 128 Kbps
Channel(s) : 2 channels
Sampling rate : 44.1 KHz
Resolution : 16 bits
Stream size : 120 MiB (17%)
Title : mp3 audio

related torrents

Torrent name

health leech seeds Size
 

comments (0)

Main Menu