Other

Bancharum er bagan avi

  • Download 5x Faster
  • Download torrent
  • Direct Download
  • Rate this torrent +  |  -
Bancharum er bagan avi

Free and Direct Download with Usenet 300GB+ free


Torrent info

Name:Bancharum er bagan avi

Total Size: 1.25 GB

Magnet: Magnet Link

Seeds: 0

Leechers: 0

Stream: Watch Online @ Movie4u

Last Updated: 2013-01-04 04:14:51 (Update Now)

Torrent added: 2008-10-31 00:35:11




Torrent Files List


Bancharum_er_bagan.avi (Size: 1.25 GB) (Files: 1)

 Bancharum_er_bagan.avi

1.25 GB
 

Announce URL:

Torrent description

Funny movie with lot of message.
1980, by Tapan Sinha


Movie details:
Bancharamer Bagan (1980)
http://www.imdb.com/title/tt0310712/


File details:
General
Complete name : Bancharum_er_bagan.avi
Format : AVI
Format/Info : Audio Video Interleave
Format profile : OpenDML
File size : 1.25 GiB
Duration : 4h 19mn
Overall bit rate : 691 Kbps
Writing application : Lavf51.12.1

Video
Format : MPEG-4 Visual
Format profile : Simple@L1
Format settings, BVOP : No
Format settings, QPel : No
Format settings, GMC : No warppoints
Format settings, Matrix : Default
Codec ID : DX50
Codec ID/Hint : DivX 5
Duration : 1h 49mn
Bit rate : 630 Kbps
Width : 720 pixels
Height : 480 pixels
Display aspect ratio : 1.500
Frame rate : 29.970 fps
Standard : NTSC
Resolution : 24 bits
Colorimetry : 4:2:0
Scan type : Progressive
Bits/(Pixel*Frame) : 0.061
Stream size : 1.14 GiB (91%)
Writing library : Lavc51.40.4

Audio
Format : MPEG Audio
Format version : Version 1
Format profile : Layer 3
Codec ID : 55
Codec ID/Hint : MP3
Duration : 1h 48mn
Bit rate mode : Constant
Bit rate : 128 Kbps
Channel(s) : 2 channels
Sampling rate : 48.0 KHz
Resolution : 16 bits
Stream size : 99.4 MiB (8%)
Alignment : Aligned on interleaves
Interleave, duration : 24 ms (0.72 video frame)

related torrents

Torrent name

health leech seeds Size
 

comments (0)

Main Menu