Other

Greece, The Hidden War

  • Download 5x Faster
  • Download torrent
  • Direct Download
  • Rate this torrent +  |  -
Greece, The Hidden War

Free and Direct Download with Usenet.nl 300GB+ free


Torrent info

Name:Greece, The Hidden War

Total Size: 903.67 MB

Magnet: Magnet Link

Seeds: 0

Leechers: 0

Stream: Watch Online @ Movie4u

Last Updated: 2011-04-15 07:50:56 (Update Now)

Torrent added: 2008-10-30 08:41:18





Torrent Files List


Greece - The Hidden War1.avi (Size: 903.67 MB) (Files: 2)

 Greece - The Hidden War1.avi

452.67 MB

 Greece - The Hidden War2.avi

451.00 MB
 

Announce URL:

Torrent description

This is a British political documentary produced in 1986 and shown for just one and only time in British television, thereby being BANNED (including all but one copies destroyed) concerning the involvement of British Government in Greece's political affairs during and after WW2, one that is argued to have been the main catalyst in the breaking out of the Greek Civil War in Greece, followed by American involvement in the Civil War Battle (in line with the Truman Doctrine).

The documentary consists mainly of interviews of Greek, British and American participants, soldiers, officials, politicians and folk people, that make up the two parts of the documentary:
1)The first, concerns the events in which the ELAS movement, the Greek resistance group (leftist orientated, yet made up of people of widely different political views, thus of wide social base), clashes with Churchill's plans for postwar Greece and the British' internal allies,
2) the second part concerns the American involvement and the events of the Greek civil war until its closure with the defeat of the Democratic Army in the mountains of Grammos and Vitsi.

The only reference to it on the internet I found was the following: http://ftvdb.bfi.org.uk/sift/series/8343
The parts of this documentary in my possession are the ones called "The Battle for Athens" and "The Civil War"

It is a collective item least to say. It was shown in Greek television channel ET1 on the 13/4/2006 by the documentary series "Θεματικη Βραδια" (translated as "Thematic Evening"..sadly the show has now been canceled) and was ripped and encoded by a member in some private greek tracker.

General
Complete name : D:\My Torrents\Greece, The Hidden War\Greece - The Hidden War1.avi
Format : AVI
Format/Info : Audio Video Interleave
File size : 453 MiB
Duration : 51mn 52s
Overall bit rate : 1 220 Kbps
Writing application : VirtualDubMod 1.5.10.2 (build 2540/release)
Writing library : VirtualDubMod build 2540/release

Video
Format : MPEG-4 Visual
Format settings, BVOP : No
Format settings, QPel : No
Format settings, GMC : No warppoints
Format settings, Matrix : Default
Codec ID : DX50
Codec ID/Hint : DivX 5
Duration : 51mn 52s
Bit rate : 1 082 Kbps
Width : 640 pixels
Height : 480 pixels
Display aspect ratio : 4/3
Frame rate : 25.002 fps
Resolution : 24 bits
Colorimetry : 4:2:0
Scan type : Progressive
Bits/(Pixel*Frame) : 0.141
Stream size : 402 MiB (89%)
Writing library : DivX 6.0.0 (UTC 2005-06-15)

Audio
Format : MPEG Audio
Format version : Version 1
Format profile : Layer 3
Codec ID : 55
Codec ID/Hint : MP3
Duration : 51mn 52s
Bit rate mode : Constant
Bit rate : 128 Kbps
Channel(s) : 2 channels
Sampling rate : 44.1 KHz
Resolution : 16 bits
Stream size : 47.5 MiB (10%)
Alignment : Split accross interleaves
Interleave, duration : 40 ms (1.00 video frame)
Interleave, preload duration : 500 ms
Writing library : LAME3.93
Encoding settings : CBR


General
Complete name : D:\My Torrents\Greece, The Hidden War\Greece - The Hidden War2.avi
Format : AVI
Format/Info : Audio Video Interleave
File size : 451 MiB
Duration : 51mn 40s
Overall bit rate : 1 220 Kbps
Writing application : VirtualDubMod 1.5.10.2 (build 2540/release)
Writing library : VirtualDubMod build 2540/release

Video
Format : MPEG-4 Visual
Format settings, BVOP : No
Format settings, QPel : No
Format settings, GMC : No warppoints
Format settings, Matrix : Default
Codec ID : DX50
Codec ID/Hint : DivX 5
Duration : 51mn 40s
Bit rate : 1 082 Kbps
Width : 640 pixels
Height : 480 pixels
Display aspect ratio : 4/3
Frame rate : 24.999 fps
Resolution : 24 bits
Colorimetry : 4:2:0
Scan type : Progressive
Bits/(Pixel*Frame) : 0.141
Stream size : 400 MiB (89%)
Writing library : DivX 6.0.0 (UTC 2005-06-15)

Audio
Format : MPEG Audio
Format version : Version 1
Format profile : Layer 3
Codec ID : 55
Codec ID/Hint : MP3
Duration : 51mn 40s
Bit rate mode : Constant
Bit rate : 128 Kbps
Channel(s) : 2 channels
Sampling rate : 44.1 KHz
Resolution : 16 bits
Stream size : 47.3 MiB (10%)
Alignment : Split accross interleaves
Interleave, duration : 40 ms (1.00 video frame)
Interleave, preload duration : 500 ms
Writing library : LAME3.93
Encoding settings : CBR

related torrents

Torrent name

health leech seeds Size
 

comments (0)

Main Menu