Comedy

Keiner haut wie Don Camillo German AC3 XViD

  • Download 5x Faster
  • Download torrent
  • Direct Download
  • Rate this torrent +  |  -
Keiner haut wie Don Camillo German AC3 XViD

Free and Direct Download with Usenet.nl 300GB+ free


Torrent info

Name:Keiner haut wie Don Camillo German AC3 XViD

Total Size: 1.09 GB

Magnet: Magnet Link

Seeds: 1

Leechers: 1

Stream: Watch Online @ Movie4u

Last Updated: 2010-11-29 22:47:32 (Update Now)

Torrent added: 2008-10-30 08:34:31





Torrent Files List


Keiner haut wie Don Camillo.avi (Size: 1.09 GB) (Files: 2)

 Keiner haut wie Don Camillo.avi

1.09 GB

 Keiner haut wie Don Camillo.txt

2.03 KB
 

Announce URL: http://sot.kicks-ass.net/announce.php

Torrent description

Filmdaten

Deutscher Titel: Keiner haut wie Don Camillo
Originaltitel: Don Camillo
Produktionsland: Italien
Erscheinungsjahr: 1983
Länge: 126 Minuten
Originalsprache: Italienisch
Altersfreigabe: FSK 6
Stab
Regie: Terence Hill
Drehbuch: Lori Hill
Produktion: Terence Hill
Musik: Pino Donaggio
Kamera: Franco Di Giacomo
Schnitt: Jack Fitzstephens
Besetzung

* Terence Hill: Don Camillo
* Colin Blakely: Peppone
* Mimsy Farmer: Jo Magro
* Lew Ayres: Doktor
* Cyril Cusack: Bischof



Allgemein

Vollständiger Name : Keiner haut wie Don Camillo.avi
Format : AVI
Format/Info : Audio Video Interleave
Dateigre : 1.09 GiB
Duration : 1h 58min
Gesamte Bitrate : 1323 Kbps
Verwendetes Programm : VirtualDubMod 1.5.4.1 (build 2178/release)
verwendete Encoder-Bibliothek : VirtualDubMod build 2178/release
IAS1 : Deutsch

Video

Format : MPEG-4 Visual
Format profile : Streaming [email protected]
Format settings, BVOP : Ja
Format settings, QPel : Nein
Format settings, GMC : No warppoints
Format settings, Matrix : Custom
Codec ID : XVID
Codec ID/Hint : XviD
Duration : 1h 58min
Bitrate : 1092 Kbps
Breite : 512 Pixel
Höhe : 288 Pixel
Bildseitenverhältnis : 16/9
Bildwiederholungsrate : 25.000 FPS
Auflösung : 8 bits
Colorimetry : 4:2:0
Scan type : Progressive
Bits/(Pixel*Frame) : 0.296
Stream size : 924 MiB (83)
verwendete Encoder-Bibliothek : XviD 1.2.0.dev47 (UTC 2006-11-01)

Audio

Format : AC-3
Format/Info : Audio Coding 3
Codec ID : 2000
Duration : 1h 58min
Bitraten-Modus : Constant
Bitrate : 224 Kbps
Kanäle : 2 Kanäle
Channel positions : L R
Samplingrate : 48.0 KHz
Stream size : 190 MiB (17)
Alignment : Aligned on interleaves
Interleave, duration : 96 ms (2.40 video frames)
Interleave, preload duration : 96 ms


Handlung

Don Camillo ist ein Priester, der dem Wandel der Zeit folgt. Er fährt ein Motocrossrad und vollzieht sogar eine Trauung beim Fallschirmspringen. Doch nicht alles verändert sich. Noch immer steckt Don Camillo im Streit mit dem kommunistischen Bürgermeister Peppone, dessen Sohn er auf den Zweitnamen Lenin taufen soll. Er möchte dies aber nicht und so wird die Auseinandersetzung mit einem ausgiebigen Faustkampf geregelt.

Doch schon bald kommen neue Streitigkeiten auf. Peppone möchte, ganz gegen den Willen von Don Camillo, den Bau eines Freizeitheimes für einen großen Propaganda-Feldzug gegen die Kirche nutzen. Peppone besticht den Schiedsrichter des traditionellen Dorf-Fußballspiels, um es zu seinen Gunsten zu entscheiden.

Mit einem Sieg Don Camillos über Peppone bei einem Scopa-Spiel kann dieser dem Vormarsch des Kommunismus vorübergehend Einhalt gebieten. Als der Betrug des Priesters bemerkt wird, hat er schlechte Karten. Dann bekommt er eine große Chance, es Peppone heimzuzahlen: Dieser hat unter falschem Namen ein Lotterielos gekauft und dabei den Hauptgewinn gezogen. Da es Peppone als kommunistischem Bürgermeister untersagt ist, einen Koffer voller Geld zu besitzen, schickt er seinen einzigen Freund Don Camillo los, um das Geld in Empfang zu nehmen. Bevor er dem Bürgermeister das Geld übergibt, freut sich die Kirche über einen satten Teil des Gewinns.

Das letzte Fußballspiel endet in einer großen Schlägerei, da beide Parteien verbotenerweise Profis eingesetzt haben.

related torrents

Torrent name

health leech seeds Size
 

comments (0)

Main Menu