Action

Rhea M Uncut xvid avi

  • Download 5x Faster
  • Download torrent
  • Direct Download
  • Rate this torrent +  |  -
Rhea M Uncut xvid avi

Anonymous and Free Direct Download 300GB+


Torrent info

Name:Rhea M Uncut xvid avi

Total Size: 700.13 MB

Magnet: Magnet Link

Seeds: 1

Leechers: 0

Stream: Watch Online @ Movie4u

Last Updated: 2010-07-23 20:46:48 (Update Now)

Torrent added: 2008-10-29 16:37:30



VPN For Torrents

Torrent Files List


Rhea M Uncut xvid.avi (Size: 700.13 MB) (Files: 1)

 Rhea M Uncut xvid.avi

700.13 MB
 

Announce URL: http://tracker-of-mythos.webhop.org/announce.php

Torrent description

Allgemein
Vollständiger Name : Rhea M Uncut xvid.avi
Format : AVI
Format/Info : Audio Video Interleave
Dateigre : 700 MiB
Duration : 1h 33min
Gesamte Bitrate : 1 047 Kbps
Verwendetes Programm : VirtualDubMod 1.5.4.1 (build 2178/release)
verwendete Encoder-Bibliothek : VirtualDub build 24442/release

Video
Format : MPEG-4 Visual
Format profile : Streaming [email protected]
Format settings, BVOP : Ja
Format settings, QPel : Nein
Format settings, GMC : No warppoints
Format settings, Matrix : Custom
Codec ID : XVID
Codec ID/Hint : XviD
Duration : 1h 33min
Bitrate : 909 Kbps
Breite : 656 Pixel
Höhe : 288 Pixel
Bildseitenverhältnis : 2.25
Bildwiederholungsrate : 25,000 FPS
Auflösung : 24 bits
Colorimetry : 4:2:0
Scan type : Progressive
Bits/(Pixel*Frame) : 0.193
Stream size : 608 MiB (87)
verwendete Encoder-Bibliothek : XviD 1.2.0.dev47 (UTC 2006-11-01)

Audio
Format : MPEG Audio
Format version : Version 1
Format profile : Layer 3
Codec ID : 55
Codec ID/Hint : MP3
Duration : 1h 33min
Bitraten-Modus : Constant
Bitrate : 128 Kbps
Kanäle : 2 Kanäle
Samplingrate : 48,0 KHz
Auflösung : 16 bits
Stream size : 85,6 MiB (12)
Alignment : Aligned on interleaves
Interleave, duration : 40 ms (1,00 video frame)
Interleave, preload duration : 504 ms
verwendete Encoder-Bibliothek : LAME3.97

related torrents

Torrent name

health leech seeds Size

G O C A F Rhea m Uncut

0 0 700.13 MB 0
 


comments (0)

Main Menu