Drama

Juha avi

  • Download 5x Faster
  • Download torrent
  • Direct Download
  • Rate this torrent +  |  -
Juha avi

Anonymous and Free Direct Download 300GB+


Torrent info

Name:Juha avi

Total Size: 0.99 GB

Magnet: Magnet Link

Seeds: 6

Leechers: 24

Stream: Watch Online @ Movie4u

Last Updated: 2010-10-05 11:41:57 (Update Now)

Torrent added: 2008-10-29 15:29:26

Alternatives:Juha avi Torrents



VPN For Torrents

Torrent Files List


Juha.avi (Size: 0.99 GB) (Files: 1)

 Juha.avi

0.99 GB
 

Announce URL: http://tracker.tntvillage.scambioetico.org:2710/announce

Torrent description

Juha,[Xvid - Ita MP3][www.tntvillage.scambioetico.org]

Scheda del film

Titolo:Juha
Titolo originale:Juha
Nazionalità:Finlandia
Anno:1999
Genere:Drammatico
Regia:Aki Kaurismaki
Produzione:Sputnik Oy, Pandora Film.
Distribuzione:Keyfilms
Data di uscita:20 Agosto 1999 (cinema)


Cast

André Wilms, Esko Nikkari, Elina Salo, Markku Peltola,
Ona Kamu Sakari Kuosmanen, Kati Outinen.



Scheda tecnica del DivX

General
Complete name : Juha.avi
Format : AVI
Format/Info : Audio Video Interleave
File size : 1 016 MiB
Duration : 1h 12mn
Overall bit rate : 1 955 Kbps
Writing application : VirtualDubMod 1.5.4.1 (build 2178/release)
Writing library : VirtualDubMod build 2178/release

Video
Format : MPEG-4 Visual
Format profile : Streaming [email protected]
Format settings, BVOP : Yes
Format settings, QPel : No
Format settings, GMC : No warppoints
Format settings, Matrix : Custom
Codec ID : XVID
Codec ID/Hint : XviD
Duration : 1h 12mn
Bit rate : 1 822 Kbps
Width : 640 pixels
Height : 400 pixels
Display aspect ratio : 1.600
Frame rate : 25.000 fps
Resolution : 24 bits
Colorimetry : 4:2:0
Scan type : Progressive
Bits/(Pixel*Frame) : 0.285
Stream size : 947 MiB (93%)
Writing library : XviD 1.2.0.dev47 (UTC 2006-11-01)

Audio
Format : MPEG Audio
Format version : Version 1
Format profile : Layer 3
Codec ID : 55
Codec ID/Hint : MP3
Duration : 1h 12mn
Bit rate mode : Variable
Bit rate : 120 Kbps
Nominal bit rate : 128 Kbps
Channel(s) : 2 channels
Sampling rate : 48.0 KHz
Resolution : 16 bits
Stream size : 62.5 MiB (6%)
Alignment : Aligned on interleaves
Interleave, duration : 24 ms (0.60 video frame)
Interleave, preload duration : 290 ms
Writing library : LAME3.90.
Encoding settings : ABR

related torrents

Torrent name

health leech seeds Size
 


comments (0)

Main Menu