Drama

Making Of By Nouri Bouzid Arabic Eng Sub DivX Beznas avi

  • Download 5x Faster
  • Download torrent
  • Direct Download
  • Rate this torrent +  |  -
Making Of By Nouri Bouzid Arabic Eng Sub DivX Beznas avi

Free and Direct Download with Usenet.nl 300GB+ free


Torrent info

Name:Making Of By Nouri Bouzid Arabic Eng Sub DivX Beznas avi

Total Size: 697.39 MB

Magnet: Magnet Link

Seeds: 4

Leechers: 2

Stream: Watch Online @ Movie4u

Last Updated: 2010-11-17 21:38:17 (Update Now)

Torrent added: 2008-10-28 16:40:17





Torrent Files List


Making.Of-By.Nouri.Bouzid.Arabic.Eng.Sub.DivX.Beznas.avi (Size: 697.39 MB) (Files: 1)

 Making.Of-By.Nouri.Bouzid.Arabic.Eng.Sub.DivX.Beznas.avi

697.39 MB
 

Announce URL: http://open.tracker.thepiratebay.org/announce

Torrent description

The Tunisian director Nouri Bouzid s film "Making Of" shows how radical Islamists turn youths into suicide bombers, and why some young Muslims are attracted to the idea of violence.
Making Of took home two awards from the Tribeca Film Festival; one for Best Actor, and the other a special mention for Best Screenplay. Though the winning performance by young Lofti Abdelli as Bahta, the carefree-kid-turned-dazed-terrorist is doubtlessly noteworthy, it s Bouzid s nuanced script that goes the furthest to give this Tunisian film its undeniable impact. Opening with a group of lively and typical teenage boys talking trash, flirting with delinquency via graffiti it s hard to imagine that Making Of will devolve into a harrowing look at the mind of a young man who will soon strap sticks of dynamite to his chest. Yet, as beautifully as Bouzid and cinematographer Michel Baudour present the landscape of seaside Tunis, they paint in equally vivid strokes the hardscrabble poverty that affects so many families in the north Africa. As Bahta s run-ins with the law escalate in intensity, his relationship with his father disintegrates and his options dwindle (the kid just wants to be a break dancer, which isn t an admired, or particularly lucrative, occupation in Tunisia), it still seems extraordinarily unlikely that he s destined to become a deluded pawn in an extremist game. But Bouzid delicately and empathetically puts him there in a way that s as emotionally deflating for the viewer as it is haunting.
=========================================================
General
Complete name : Making.Of-By.Nouri.Bouzid.Arabic.Eng.Sub.DivX.Beznas.avi
Format : AVI
Format/Info : Audio Video Interleave
File size : 697 MiB
Duration : 2h 0mn
Overall bit rate : 812 Kbps
Writing library : VirtualDub build 30009/release
--------------------------------------------------
Video
Format : MPEG-4 Visual
Format settings, BVOP : Yes
Format settings, QPel : No
Format settings, GMC : No warppoints
Format settings, Matrix : Default
Muxing mode : Packed bitstream
Codec ID : DX50
Codec ID/Hint : DivX 5
Duration : 1h 59mn
Bit rate : 675 Kbps
Width : 720 pixels
Height : 480 pixels
Display aspect ratio : 1.500
Frame rate : 23.976 fps
Standard : NTSC
Resolution : 24 bits
Colorimetry : 4:2:0
Scan type : Progressive
Bits/(Pixel*Frame) : 0.082
Stream size : 580 MiB (83%)
Writing library : DivX 2676
--------------------------------------------------
Audio
Format : MPEG Audio
Format version : Version 1
Format profile : Layer 3
Codec ID : 55
Codec ID/Hint : MP3
Duration : 2h 0mn
Bit rate mode : Constant
Bit rate : 128 Kbps
Channel(s) : 2 channels
Sampling rate : 44.1 KHz
Resolution : 16 bits
Stream size : 110 MiB (16%)
Alignment : Split accross interleaves
Interleave, duration : 42 ms (1.00 video frame)
Interleave, preload duration : 500 ms

related torrents

Torrent name

health leech seeds Size
 

comments (0)

Main Menu