Romance

The Majestic 2001 dvdrip xvid eng mp3

  • Download 5x Faster
  • Download torrent
  • Direct Download
  • Rate this torrent +  |  -
The Majestic 2001 dvdrip xvid eng mp3

Download FREE And Anonymously


Torrent info

Name:The Majestic 2001 dvdrip xvid eng mp3

Total Size: 1.35 GB

Magnet: Magnet Link

Seeds: 0

Leechers: 2

Stream: Watch Full Movie @ Movie4u

Last Updated: 2015-09-06 12:21:22 (Update Now)

Torrent added: 2008-10-28 16:39:54



VPN For Torrents

Torrent Files List


2001.The.Majestic.dvdrip.xvid.eng.mp3.avi (Size: 1.35 GB) (Files: 3)

 2001.The.Majestic.dvdrip.xvid.eng.mp3.avi

1.35 GB

 Read.Me.nfo

2.47 KB

 Torrent downloaded from Demonoid.com.txt

0.05 KB
 

tracker

leech seeds
 

Torrent description

Synopsis
In this Capra-esque drama set during the 1950's blacklist, a young, ambitious Hollywood screenwriter loses his job and his identity, only to find new courage, love and the power of conviction in the heart of a small town's life.

Tech Stuff
Burn Tested: No
Format : AVI
Format/Info : Audio Video Interleave
File size : 1.35 GiB
Duration : 2h 32mn
Overall bit rate : 1 265 Kbps

Video
Format : MPEG-4 Visual
Format profile : [email protected]
Format settings, BVOP : No
Format settings, QPel : No
Format settings, GMC : No warppoints
Format settings, Matrix : Default
Codec ID : XVID
Codec ID/Hint : XviD
Duration : 2h 32mn
Bit rate : 1 124 Kbps
Width : 640 pixels
Height : 360 pixels
Display aspect ratio : 16/9
Frame rate : 29.970 fps
Original frame rate : 29.969 fps
Resolution : 24 bits
Colorimetry : 4:2:0
Scan type : Progressive
Bits/(Pixel*Frame) : 0.163
Stream size : 1.20 GiB (89%)
Writing library : Magic0432

Audio
Format : MPEG Audio
Format version : Version 1
Format profile : Layer 3
Codec ID : 55
Codec ID/Hint : MP3
Duration : 2h 32mn
Bit rate mode : Constant
Bit rate : 128 Kbps
Channel(s) : 2 channels
Sampling rate : 44.1 KHz
Resolution : 16 bits
Stream size : 140 MiB (10%)
Alignment : Aligned on interleaves
Interleave, duration : 26 ms (0.78 video frame)

related torrents

Torrent name

health leech seeds Size

The Majestic (2001) JBW

0 0 2.06 GB 0
 


comments (0)

Main Menu

 

script data-cfasync="false" src="//d2ghscazvn398x.cloudfront.net/?cshgd=690275">