Comedy

Wag the Dog (1997) OPT NORDSUBS

  • Download 5x Faster
  • Download torrent
  • Direct Download
  • Rate this torrent +  |  -
Wag the Dog (1997) OPT NORDSUBS

Anonymous and Free Direct Download 300GB+


Torrent info

Name:Wag the Dog (1997) OPT NORDSUBS

Total Size: 699.04 MB

Magnet: Magnet Link

Seeds: 1

Leechers: 0

Stream: Watch Online @ Movie4u

Last Updated: 2017-07-11 09:37:03 (Update Now)

Torrent added: 2008-10-28 16:39:36



VPN For Torrents

Torrent Files List


Info about this release.txt (Size: 699.04 MB) (Files: 7)

 Info about this release.txt

4.35 KB

 Optional subtitles

  Dansk.rar

1.12 MB

  Norsk.rar

1.19 MB

  Notes on subtitle files and burning of discs.txt

2.08 KB

  Suomiseksi.rar

1.01 MB

  Svenska.rar

1.03 MB

 Wag the Dog (1997) Dustin Hoffman+Robert DeNiro (OPT.NORDSUBS)_Kuth.avi

694.70 MB
 

Announce URL:

Torrent description

Wag the Dog (1997)

Optional subtitles in separate idx/sub files:
Danish, Finnish, Norwegian, Swedish

Directed by Barry Levinson
With Dustin Hoffman, Robert DeNiro, Anne Heche, Denis Leary and Woody Harrelson

Brilliant satire: A spin-doctor and a Hollywood producer join efforts to "fabricate" a war in order to cover up a presidential sex scandal.

Widescreen XviD 2-pass 720x400, good stereo AC3.
Burn tested, runs well in both my standalone DivX players.


Format/Info : Audio Video Interleave
File size : 695 MiB
Duration : 1h 32mn
Overal bit rate : 1044 Kbps

Video
Format : MPEG-4 Visual
Format profile : Streaming [email protected]
Format settings, BVOP : Yes
Format settings, QPel : No
Format settings, GMC : No warppoints
Format settings, Matrix : Default
Muxing mode : Packet Bitstream
Codec ID : XVID
Codec ID/Hint : XviD
Duration : 1h 32mn
Bit rate : 907 Kbps
Width : 720 pixels
Height : 400 pixels
Display aspect ratio : 16/9
Frame rate : 25.000 fps
Resolution : 8 bits
Colorimetry : 4:2:0
Scan type : Progressive
Bits/(Pixel*Frame) : 0.126
Stream size : 603 MiB
Writing library : XviD 1.2.0.dev47 (UTC 2006-11-01)

Audio
Format : MPEG Audio
Format version : Version 1
Format profile : Layer 3
Codec ID : 55
Codec ID/Hint : MP3
Duration : 1h 32mn
Bit rate mode : Constant
Bit rate : 128 Kbps
Minimum bit rate : 128 Kbps
Channel(s) : 2 channels
Sampling rate : 48.0 KHz
Resolution : 16 bits
Stream size : 85.1 MiB
Writing library : LAME3.97
Encoding settings : CBR

Source: PAL native 7.1 GiB (note that PAL/NTSC will give no problems for avi
files).

Thanks to Kuthumi!


All available subs: here
Cover image: here

related torrents

Torrent name

health leech seeds Size
 


comments (0)

Main Menu